Fear in the Night (Maxwell Shane, 1947) DVDRip VOSE

Publica y encuentra enlaces p2p de filmes hasta 1980 en esta sección.
felipemarlou

Mensajes: 356
Registrado: Lun 07 Oct, 2013 15:18

Fear in the Night (Maxwell Shane, 1947) DVDRip VOSE

Mensajepor felipemarlou » Mié 18 Oct, 2017 10:01

Imagen

Fear in the Night (1947)
Fear in the Night

País: EE.UU.
Duración: 72 minutos
B/N

Director: Maxwell Shane
Guión: Cornell Woolrich, Maxwell Shane
Productor: L.B. Merman, William H. Pine, William C. Thomas
Director de fotografía: Jack Greenhalgh
Música: Rudy Schrager

Más información


Reparto: Paul Kelly, DeForest Kelley, Ann Doran, Kay Scott, Charles Victor, Robert Emmett Keane, Jeff York, Joey Ray, Loyette Thomson, Gladys Blake, Jack Collins, Leander De Cordova, Chris Drake, Stanley Farrar, Julia Faye, John Harmon, Michael Harvey, Stuart Holmes, Richard Keene, Janet Warren

Sinopsis y comentarios:

Un hombre despierta en su habitación después de haber tenido un terrible sueño en el que mata a una mujer. Sin embargo, se da cuenta de que ese sueño puede que no haya sido tal y empieza a sospechar que realmente haya cometido dicho crimen. (FILMAFFINITY)

Capturas:
Imagen
Imagen
Imagen
Imagen
Imagen
Imagen
Imagen

Datos técnicos:
Spoiler: mostrar

Código: Seleccionar todo

Name:
Fear in the night 1947.Maxwell Shane. DVDRip New. English.mkv
Format                                   : Matroska
Format version                           : Version 2
File size                                : 451 MiB
Duration                                 : 1h 10mn
Overall bit rate                         : 892 Kbps
Encoded date                             : UTC 2016-10-18T18:22:24Z
Writing application                      : HandBrake 0.10.5 2016021100
Writing library                          : Lavf55.12.0

Video
ID                                       : 1
Format                                   : AVC
Format/Info                              : Advanced Video Codec
Format profile                           : Main@L4
Format settings, CABAC                   : Yes
Format settings, ReFrames                : 4 frames
Codec ID                                 : V_MPEG4/ISO/AVC
Duration                                 : 1h 10mn
Bit rate                                 : 714 Kbps
Width                                    : 720 pixels
Height                                   : 480 pixels
Display aspect ratio                     : 4:3
Frame rate mode                          : Constant
Frame rate                               : 23.976 fps
Color space                              : YUV
Chroma subsampling                       : 4:2:0
Bit depth                                : 8 bits
Scan type                                : Progressive
Bits/(Pixel*Frame)                       : 0.086
Stream size                              : 361 MiB (80%)
Writing library                          : x264 core 142 r2479 dd79a61
Encoding settings                        : cabac=1 / ref=1 / deblock=1:0:0 / analyse=0x1:0x111 / me=hex / subme=2 / psy=1 / psy_rd=1.00:0.00 / mixed_ref=0 / me_range=16 / chroma_me=1 / trellis=0 / 8x8dct=0 / cqm=0 / deadzone=21,11 / fast_pskip=1 / chroma_qp_offset=0 / threads=3 / lookahead_threads=1 / sliced_threads=0 / nr=0 / decimate=1 / interlaced=0 / bluray_compat=0 / constrained_intra=0 / bframes=3 / b_pyramid=2 / b_adapt=1 / b_bias=0 / direct=1 / weightb=1 / open_gop=0 / weightp=1 / keyint=240 / keyint_min=24 / scenecut=40 / intra_refresh=0 / rc_lookahead=10 / rc=crf / mbtree=1 / crf=20.0 / qcomp=0.60 / qpmin=0 / qpmax=69 / qpstep=4 / vbv_maxrate=20000 / vbv_bufsize=25000 / crf_max=0.0 / nal_hrd=none / filler=0 / ip_ratio=1.40 / aq=1:1.00
Default                                  : Yes
Forced                                   : No
Color range                              : Limited
Color primaries                          : BT.601 NTSC
Transfer characteristics                 : BT.709
Matrix coefficients                      : BT.601

Audio
ID                                       : 2
Format                                   : AC-3
Format/Info                              : Audio Coding 3
Mode extension                           : CM (complete main)
Format settings, Endianness              : Big
Codec ID                                 : A_AC3
Duration                                 : 1h 10mn
Bit rate mode                            : Constant
Bit rate                                 : 160 Kbps
Channel(s)                               : 2 channels
Channel positions                        : Front: L R
Sampling rate                            : 48.0 KHz
Compression mode                         : Lossy
Delay relative to video                  : 27ms
Stream size                              : 81.0 MiB (18%)
Title                                    : Stereo
Default                                  : Yes
Forced                                   : No

Menu
00:00:00.000                             : :Chapter 1
00:10:48.648                             : :Chapter 2
00:20:18.634                             : :Chapter 3
00:32:30.865                             : :Chapter 4
00:46:32.456                             : :Chapter 5
00:57:50.884                             : :Chapter 6



Adaptación del relato corto de Cornell Woolrich (a.k.a William Irish) Nightmare a cargo de Maxwell Shane, guionista y ocasionalmente director (solo 5 pelis, entre ellas la excelente The glass wall), autor asimismo del (auto)remake (Noche de pesadilla, 1956).

A partir de la copia vhsrip que amablemente me prestara Forrest Gump, extraje líneas y tiempos e hice algunos retoques en la tradu, así como en los timings...línea por línea.

Disfrútenlos...o no. :wink:

Imagen

Elinks:

Fear in the night 1947.Maxwell Shane. DVDRip New. English.mkv [451.29 Mb] [Info]


Subtítulos en español en descarga directa:

http://www.subdivx.com/X6XNDgxNTkzX-fea ... -1947.html

Volver a “Cine Clásico”

¿Quién está conectado?

Usuarios navegando por este Foro: eulsus, zundertaker y 4 invitados