Criss Cross (Robert Siodmak, 1949) HD 720p Dual SE

Publica y encuentra enlaces p2p de filmes hasta 1980 en esta sección.
Avatar de Usuario
Dardo
Arrow Thrower Clown
Mensajes: 16514
Registrado: Dom 19 Oct, 2003 02:00
Ubicación: Entre Encinas y Dolomías

Criss Cross (Robert Siodmak, 1949) HD 720p Dual SE

Mensaje por Dardo » Mié 06 Ene, 2016 13:53

HDTV 720p que abrió el hilo:
Spoiler: mostrar
Criss Cross
"El abrazo de la muerte"
(Robert Siodmak, 1949)
IMDB
Año de producción: 1949
País: Imagen
Dirección: Robert Siodmak
Intérpretes: Burt Lancaster, Yvonne De Carlo, Dan Duryea, Stephen McNally,
Tom Pedi, Percy Helton, Alan Napier, Griff Barnett, Meg Randall, Richard Long
Guión: Daniel Fuchs
Música: Miklós Rózsa
Fotografía: Franz Planer (B&W)
Duración: 1h 27 min
Género: Cine negro | Robos & Atracos

Sinopsis: Un hombre honrado es arrastrado al sórdido mundo de la corrupción
por el influjo de una "femme-fatale" tan bella como peligrosa. Gran obra de Siodmak
dentro del género del cine negro. Filmaffinity


Comentario:
En “El Abrazo de la Muerte”, Robert Siodmak repite la fórmula
que con tanto éxito había utilizado en “Forajidos”: consigue un buen argumento,
propio del cine negro, y escoge a Burt Lancaster, un actor al que ya había hecho debutar
con la obra mencionada anteriormente, para protagonizarlo.
El resultado es incluso superior, a pesar de que la primera,
basada en un relato corto de Hemingway, es mucho más famosa
y citada a la hora de repasar las grandes obras del género.
Imagen

Datos del Ripeo
@@ Vídeo:

Ripeo 720p de una emisión HD del canal TCM. Se nos presenta un nuevo encuadre con mayor amplitud respecto a las ediciones en DVD, donde se ha mejorado en la reducción de ruido que era bastante notable en reproducción en la edición SD y una ganancia notable en nitidez, profundidad y por supuesto en resolución 720p natural, sin ser forzada. Por contra se pierde en capturas el aspecto granular y de texturas, aunque como siempre digo en reproducción este HDTV tumba de forma holgada a las ediciones en DVD. A la edición original HDTV le hemos dado DMMD y servidor nuestro diseño particular, asi que espero que os guste. Por supuesto el currazo se lo ha pegado DMMD, pero en fin yo pongo la cara bonita en la película y siempre tengo que ver que me saque con mi mejor perfil, estaría bonito!!!
DVD NTSC vs HDTV TCM vs HDTV DMMDardo

Imagen

Imagen

Imagen
@@ Audios:

Audio VO original de la emisión HD y doblaje el que hemos escuchado toda la vida sincronizado por DMMD para este ripeo.
@@ Subtítulos:

Subtítulos en español e inglés, sincronizados para este ripeo.


Imagen

Datos Técnicos

Código: Seleccionar todo

General
Complete name                            : 1949-Criss Cross HDTV 720p Dual [Eng & Spa] Subs by DMMDardo.mkv
Format                                   : Matroska
Format version                           : Version 4 / Version 2
File size                                : 2.27 GiB
Duration                                 : 1h 27mn
Overall bit rate                         : 3 714 Kbps
Movie name                               : 1949-Criss Cross HDTV 720p Dual [Eng & Spa] Subs by DMMDardo

Video
ID                                       : 1
Format                                   : AVC
Format/Info                              : Advanced Video Codec
Format profile                           : High@L4.1
Format settings, CABAC                   : Yes
Format settings, ReFrames                : 11 frames
Codec ID                                 : V_MPEG4/ISO/AVC
Duration                                 : 1h 27mn
Width                                    : 976 pixels
Height                                   : 720 pixels
Display aspect ratio                     : 4:3
Frame rate mode                          : Constant
Frame rate                               : 23.976 fps
Color space                              : YUV
Chroma subsampling                       : 4:2:0
Bit depth                                : 8 bits
Scan type                                : Progressive
Writing library                          : x264 core 142 r2479kMod dd79a61

Audio #1
ID                                       : 2
Format                                   : AAC
Format/Info                              : Advanced Audio Codec
Format profile                           : LC
Codec ID                                 : A_AAC
Duration                                 : 1h 27mn
Channel(s)                               : 2 channels
Channel positions                        : Front: L R
Sampling rate                            : 48.0 KHz
Compression mode                         : Lossy
Delay relative to video                  : 9ms
Language                                 : English
Default                                  : Yes
Forced                                   : No

Audio #2
ID                                       : 3
Format                                   : AC-3
Format/Info                              : Audio Coding 3
Mode extension                           : CM (complete main)
Format settings, Endianness              : Big
Codec ID                                 : A_AC3
Duration                                 : 1h 27mn
Bit rate mode                            : Constant
Bit rate                                 : 192 Kbps
Channel(s)                               : 2 channels
Channel positions                        : Front: L R
Sampling rate                            : 48.0 KHz
Bit depth                                : 16 bits
Compression mode                         : Lossy
Delay relative to video                  : 110ms
Stream size                              : 120 MiB (5%)
Language                                 : Spanish
Default                                  : No
Forced                                   : No

Text #1
ID                                       : 4
Format                                   : UTF-8
Codec ID                                 : S_TEXT/UTF8
Codec ID/Info                            : UTF-8 Plain Text
Language                                 : Spanish
Default                                  : Yes
Forced                                   : No

Text #2
ID                                       : 5
Format                                   : UTF-8
Codec ID                                 : S_TEXT/UTF8
Codec ID/Info                            : UTF-8 Plain Text
Language                                 : English
Default                                  : No
Forced                                   : No

Menu
00:00:00.000                             : en:Chapter 1
00:04:13.100                             : en:Chapter 2
00:10:01.133                             : en:Chapter 3
00:15:29.333                             : en:Chapter 4
00:22:04.499                             : en:Chapter 5
00:27:08.166                             : en:Chapter 6
00:32:49.933                             : en:Chapter 7
00:38:45.533                             : en:Chapter 8
00:44:05.433                             : en:Chapter 9
00:48:33.233                             : en:Chapter 10
00:53:29.266                             : en:Chapter 11
01:00:40.899                             : en:Chapter 12
01:04:36.432                             : en:Chapter 13
01:07:52.199                             : en:Chapter 14
01:12:38.365                             : en:Chapter 15
01:18:24.865                             : en:Chapter 16
01:25:29.931                             : en:Chapter 17
01:27:16.064                             : en:Chapter 18
Capturas

Imagen

Imagen

Un jovencísimo Tony Curtis bailando con quien no debe...
Imagen

Imagen

Imagen

Enlaces
@@ Subtítulos en Español e Inglés dentro del mkv.
--------------------------
****************************************
DMMD escribió:Con tu permiso Dardin pillo unos cartelillos y algunas cosillas mas :twisted:
Imagen

Criss Cross
"El abrazo de la muerte"
(Robert Siodmak, 1949)


Año de producción: 1949
País: Imagen
Dirección: Robert Siodmak
Intérpretes: Burt Lancaster, Yvonne De Carlo, Dan Duryea, Stephen McNally,
Tom Pedi, Percy Helton, Alan Napier, Griff Barnett, Meg Randall, Richard Long
Guión: Daniel Fuchs
Música: Miklós Rózsa
Fotografía: Franz Planer (B&W)
Duración: 1h 27 min
Género: Cine negro | Robos & Atracos

Sinopsis: Un hombre honrado es arrastrado al sórdido mundo de la corrupción
por el influjo de una "femme-fatale" tan bella como peligrosa. Gran obra de Siodmak
dentro del género del cine negro. Filmaffinity


Comentario:
En “El Abrazo de la Muerte”, Robert Siodmak repite la fórmula
que con tanto éxito había utilizado en “Forajidos”: consigue un buen argumento,
propio del cine negro, y escoge a Burt Lancaster, un actor al que ya había hecho debutar
con la obra mencionada anteriormente, para protagonizarlo.
El resultado es incluso superior, a pesar de que la primera,
basada en un relato corto de Hemingway, es mucho más famosa
y citada a la hora de repasar las grandes obras del género.





Imagen

Vídeo:

Hace casi un año que el compi Dardo y este mismo que escribe, publicamos una anterior Hdtv del aporte que nos ocupa, dándole nuestro propio toque en cuanto a la imagen, hace unos meses apareció una nueva fuente de partida, destacando sobre todo la mayor profundidad y definición en imagen, debido a una estructura de grano mucho mas uniforme que nos permite apreciar estos detalles, pero como es lógico con mayor peso.

He intentado ser fiel al tratamiento de imagen que hicimos en su día, pero en este caso he preferido no ser tan agresivo en cuanto a las tonos blancos, para suavizar el contraste, con el consecuente tratamiento de iluminación.


Código: Seleccionar todo

General
Unique ID                                : 254453187297352344257959011577586365291 (0xBF6DE6BAAF263150B2BE46465BE9B36B)
Complete name                            : C:\1949-Criss Cross\1949-Criss.Cross.WEB-DL.720p.AC3[DMMD].mkv
Format                                   : Matroska
Format version                           : Version 4 / Version 2
File size                                : 5.31 GiB
Duration                                 : 1 h 27 min
Overall bit rate                         : 8 663 kb/s
Movie name                               : 1949-Criss.Cross.WEB-DL.720p.AC3[DMMD]
Encoded date                             : UTC 2016-12-02 11:05:08
Writing application                      : mkvmerge v9.0.1 ('Obstacles') 64bit
Writing library                          : libebml v1.3.3 + libmatroska v1.4.4
Attachments                              : 1 / 2 / 3

Video
ID                                       : 1
Format                                   : AVC
Format/Info                              : Advanced Video Codec
Format profile                           : High@L4.1
Format settings, CABAC                   : Yes
Format settings, ReFrames                : 11 frames
Codec ID                                 : V_MPEG4/ISO/AVC
Duration                                 : 1 h 27 min
Bit rate                                 : 8 245 kb/s
Width                                    : 972 pixels
Height                                   : 720 pixels
Display aspect ratio                     : 4:3
Frame rate mode                          : Constant
Frame rate                               : 23.976 FPS
Color space                              : YUV
Chroma subsampling                       : 4:2:0
Bit depth                                : 8 bits
Scan type                                : Progressive
Bits/(Pixel*Frame)                       : 0.491
Stream size                              : 5.05 GiB (95%)
Writing library                          : x264 core 148 r2638kMod 7599210
Encoding settings                        : cabac=1 / ref=11 / deblock=1:-3:-3 / analyse=0x3:0x133 / me=umh / subme=11 / psy=1 / fade_compensate=0.00 / psy_rd=1.00:0.00 / mixed_ref=1 / me_range=32 / chroma_me=1 / trellis=2 / 8x8dct=1 / cqm=0 / deadzone=21,11 / fast_pskip=0 / chroma_qp_offset=-2 / threads=6 / lookahead_threads=1 / sliced_threads=0 / nr=0 / decimate=0 / interlaced=0 / bluray_compat=0 / constrained_intra=0 / fgo=0 / bframes=8 / b_pyramid=2 / b_adapt=2 / b_bias=0 / direct=3 / weightb=1 / open_gop=0 / weightp=2 / keyint=250 / keyint_min=23 / scenecut=40 / intra_refresh=0 / rc=crf / mbtree=0 / crf=18.5000 / qcomp=0.60 / qpmin=0 / qpmax=69 / qpstep=4 / ip_ratio=1.40 / pb_ratio=1.30 / aq=1:1.00
Language                                 : English
Default                                  : Yes
Forced                                   : No

Audio #1
ID                                       : 2
Format                                   : E-AC-3
Format/Info                              : Enhanced Audio Coding 3
Format settings, Endianness              : Big
Codec ID                                 : A_EAC3
Duration                                 : 1 h 27 min
Bit rate mode                            : Constant
Bit rate                                 : 224 kb/s
Channel(s)                               : 2 channels
Channel positions                        : Front: L R
Sampling rate                            : 48.0 kHz
Frame rate                               : 187.500 FPS (256 spf)
Compression mode                         : Lossy
Delay relative to video                  : 2 ms
Stream size                              : 140 MiB (3%)
Language                                 : English
Default                                  : Yes
Forced                                   : No

Audio #2
ID                                       : 3
Format                                   : AC-3
Format/Info                              : Audio Coding 3
Mode extension                           : CM (complete main)
Format settings, Endianness              : Big
Codec ID                                 : A_AC3
Duration                                 : 1 h 27 min
Bit rate mode                            : Constant
Bit rate                                 : 192 kb/s
Channel(s)                               : 2 channels
Channel positions                        : Front: L R
Sampling rate                            : 48.0 kHz
Frame rate                               : 31.250 FPS (1536 spf)
Bit depth                                : 16 bits
Compression mode                         : Lossy
Delay relative to video                  : 1 s 10 ms
Stream size                              : 120 MiB (2%)
Language                                 : Spanish
Default                                  : No
Forced                                   : No

Text #1
ID                                       : 4
Format                                   : UTF-8
Codec ID                                 : S_TEXT/UTF8
Codec ID/Info                            : UTF-8 Plain Text
Duration                                 : 1 h 25 min
Bit rate                                 : 72 b/s
Count of elements                        : 1135
Stream size                              : 45.5 KiB (0%)
Language                                 : Spanish
Default                                  : Yes
Forced                                   : No

Text #2
ID                                       : 5
Format                                   : UTF-8
Codec ID                                 : S_TEXT/UTF8
Codec ID/Info                            : UTF-8 Plain Text
Duration                                 : 1 h 25 min
Bit rate                                 : 78 b/s
Count of elements                        : 1151
Stream size                              : 49.0 KiB (0%)
Language                                 : English
Default                                  : No
Forced                                   : No

Menu
00:00:00.000                             : en:Chapter 1
00:04:13.100                             : en:Chapter 2
00:10:01.133                             : en:Chapter 3
00:15:29.333                             : en:Chapter 4
00:22:04.499                             : en:Chapter 5
00:27:08.166                             : en:Chapter 6
00:32:49.933                             : en:Chapter 7
00:38:45.533                             : en:Chapter 8
00:44:05.433                             : en:Chapter 9
00:48:33.233                             : en:Chapter 10
00:53:29.266                             : en:Chapter 11
01:00:40.899                             : en:Chapter 12
01:04:36.432                             : en:Chapter 13
01:07:52.199                             : en:Chapter 14
01:12:38.365                             : en:Chapter 15
01:18:24.865                             : en:Chapter 16
01:25:29.931                             : en:Chapter 17
01:27:16.064                             : en:Chapter 18




Dejo una comparativa general con nuestro anterior trabajo.[/i][/b]

Web-Dl (Nuevo) Vs Hdtv (Antiguo)

Imagen
Imagen



Y alguna mas para los que gusten :wink:

Imagen Imagen Imagen Imagen Imagen Imagen
Imagen Imagen Imagen Imagen Imagen Imagen



Audios y Sub

Los mismos que utilizamos en el anterior aporte.

Ficha doblaje




Imagen




CAPTURAS

Imagen
Imagen
Imagen
Imagen
Imagen
Imagen
Imagen

Enlaces de descarga

Imagen

1949-Criss.Cross.WEB-DL.720p.AC3(DMMD).mkv
--------------------------

Avatar de Usuario
janca
Mensajes: 2174
Registrado: Dom 20 Dic, 2009 09:31

Re: Criss Cross (Robert Siodmak, 1949) HD 720p Dual SE

Mensaje por janca » Mié 06 Ene, 2016 14:06

Muchas gracias pareja

Avatar de Usuario
Spanish Jhonny
Mensajes: 2912
Registrado: Mar 18 Sep, 2012 16:01

Re: Criss Cross (Robert Siodmak, 1949) HD 720p Dual SE

Mensaje por Spanish Jhonny » Mié 06 Ene, 2016 14:18

Imagen

Estupendo el regalo de reyes
Muchas gracias

Avatar de Usuario
Cirlot
Marxista, por Karl y Groucho
DXC Republican Clown
Mensajes: 4190
Registrado: Jue 05 Ago, 2004 02:00
Ubicación: Level 5

Re: Criss Cross (Robert Siodmak, 1949) HD 720p Dual SE

Mensaje por Cirlot » Mié 06 Ene, 2016 15:06

Uno se pregunta quién es el cretino descerebrado que tiene como nick emulero PSOE + Podemos = Nazis perros cobardes bolcheviques.


Me la bajo, gracias.
Salud, comas, clowns y República


Avatar de Usuario
Dardo
Arrow Thrower Clown
Mensajes: 16514
Registrado: Dom 19 Oct, 2003 02:00
Ubicación: Entre Encinas y Dolomías

Re: Criss Cross (Robert Siodmak, 1949) HD 720p Dual SE

Mensaje por Dardo » Mié 06 Ene, 2016 15:38

Cirlot escribió:Uno se pregunta quién es el cretino descerebrado que tiene como nick emulero PSOE + Podemos = Nazis perros cobardes bolcheviques.


Me la bajo, gracias.
Sip, también lo he visto, lamentable el utilizar la mula para estas cosas... :dead:

Al menos tiene buen gusto cinéfilo... :wacky:

Avatar de Usuario
birdmanradio
Mensajes: 933
Registrado: Vie 18 May, 2007 11:26

Re: Criss Cross (Robert Siodmak, 1949) HD 720p Dual SE

Mensaje por birdmanradio » Mié 06 Ene, 2016 16:36

Muchas gracias Dardo y DMMD, plan renove :plas: :plas: :plas:

Avatar de Usuario
Canvicen
Mensajes: 225
Registrado: Mar 16 Sep, 2014 17:49

Re: Criss Cross (Robert Siodmak, 1949) HD 720p Dual SE

Mensaje por Canvicen » Mié 06 Ene, 2016 16:46

Quién dice que los Reyes Magos son un invento? He aquí la prueba palpable de su existencia. :mrgreen:
Muchas gracias Majestades. :plas:

Avatar de Usuario
Cirlot
Marxista, por Karl y Groucho
DXC Republican Clown
Mensajes: 4190
Registrado: Jue 05 Ago, 2004 02:00
Ubicación: Level 5

Re: Criss Cross (Robert Siodmak, 1949) HD 720p Dual SE

Mensaje por Cirlot » Mié 06 Ene, 2016 16:56

Dardo escribió:Sip, también lo he visto, lamentable el utilizar la mula para estas cosas... :dead:
A mí me da igual dónde lo escriba. Lo que me importa de este mini-Hitler es que equipara a nazis con bolcheviques: sea uno quien sea, venga de donde venga y crea en lo que crea, la imprecisión histórica de esa equiparación es de tal calibre que solo puede ser propia de un analfabeto enamorado de Inestrillas (o de Marhuenda, que viene a ser lo mismo :mrgreen: ).


Está campe en la cola de descarga. :shock:
Salud, comas, clowns y República


Avatar de Usuario
carrido
Mensajes: 424
Registrado: Mié 19 Feb, 2014 15:58
Ubicación: Freedonia

Re: Criss Cross (Robert Siodmak, 1949) HD 720p Dual SE

Mensaje por carrido » Mié 06 Ene, 2016 16:57

Muchísimas gracias DMMDvsDardo;por este buen regalo de Reyes.En una calidad excepcional!!!!.

:plas: :plas: :plas: :plas: :plas: :plas: :plas: :plas: :plas: :plas:
Carrido

Avatar de Usuario
Canvicen
Mensajes: 225
Registrado: Mar 16 Sep, 2014 17:49

Re: Criss Cross (Robert Siodmak, 1949) HD 720p Dual SE

Mensaje por Canvicen » Mié 06 Ene, 2016 17:32

A propósito de emisiones en HD del canal TCM. Ojalá tuvierais en trabajos pendientes un ripeo, como los fantásticos que nos regaláis a menudo, que recoja fielmente la emisión en HD del 'A Streetcar named Desire' de Elia Kazan que yo he visto a través de mi iPlus. Los ripeos de BR y HDTV que yo he visionado dejan bastante que desear respecto de la aludida.
Un saludo.

maimes
Mensajes: 246
Registrado: Mié 20 Abr, 2011 13:03

Re: Criss Cross (Robert Siodmak, 1949) HD 720p Dual SE

Mensaje por maimes » Mié 06 Ene, 2016 17:57

Muchas gracias. Renovando, que este Siodmak bien lo merece. Muy agradable sorpresa. Gracias a ambos y saludos.

Avatar de Usuario
paizoco
Mensajes: 2736
Registrado: Vie 21 Nov, 2003 01:00
Ubicación: Far West

Re: Criss Cross (Robert Siodmak, 1949) HD 720p Dual SE

Mensaje por paizoco » Mié 06 Ene, 2016 18:02

Me apunto, muchas gracias Dardo y DMMD

Avatar de Usuario
hector Glauco
Mensajes: 455
Registrado: Lun 10 Ago, 2015 14:13
Ubicación: En el Tarragonés y FDL2

Re: Criss Cross (Robert Siodmak, 1949) HD 720p Dual SE

Mensaje por hector Glauco » Mié 06 Ene, 2016 18:10

Gracias DMMD y Dardo por el rosco de reyes.

Avatar de Usuario
piakito bishop
Mensajes: 125
Registrado: Dom 03 Ene, 2010 00:08

Re: Criss Cross (Robert Siodmak, 1949) HD 720p Dual SE

Mensaje por piakito bishop » Mié 06 Ene, 2016 18:41

El mejor regalo del día. Muchas gracias DMMD y Dardo.

ostrata
Mensajes: 2179
Registrado: Mié 24 Mar, 2010 17:29

Re: Criss Cross (Robert Siodmak, 1949) HD 720p Dual SE

Mensaje por ostrata » Mié 06 Ene, 2016 18:53

Gracias. :)

Saludos,

jmog
Mensajes: 972
Registrado: Mié 06 Mar, 2013 23:22

Re: Criss Cross (Robert Siodmak, 1949) HD 720p Dual SE

Mensaje por jmog » Mié 06 Ene, 2016 18:59

Muchas gracias DMMD y Dardo, como regalo de reyes no está nada mal :plas:

grusingrusin
Mensajes: 106
Registrado: Mié 01 Ago, 2012 21:30

Re: Criss Cross (Robert Siodmak, 1949) HD 720p Dual SE

Mensaje por grusingrusin » Mié 06 Ene, 2016 20:09

¿Este ripeo supone alguna mejora respecto al ya existente de Fronky, en un mkv de unos 3 GB?

Avatar de Usuario
Dardo
Arrow Thrower Clown
Mensajes: 16514
Registrado: Dom 19 Oct, 2003 02:00
Ubicación: Entre Encinas y Dolomías

Re: Criss Cross (Robert Siodmak, 1949) HD 720p Dual SE

Mensaje por Dardo » Mié 06 Ene, 2016 20:31

grusingrusin escribió:¿Este ripeo supone alguna mejora respecto al ya existente de Fronky, en un mkv de unos 3 GB?
Bueno el de nuestro Fronkyto era un 720p reescalado de la edición en DVD y en la portada del hilo ya hemos comentado las diferencias entre la edición en DVD y el ripeo que compartimos, grusingrusin :wink:
Cirlot escribió:
Dardo escribió:Sip, también lo he visto, lamentable el utilizar la mula para estas cosas... :dead:
A mí me da igual dónde lo escriba. Lo que me importa de este mini-Hitler es que equipara a nazis con bolcheviques: sea uno quien sea, venga de donde venga y crea en lo que crea, la imprecisión histórica de esa equiparación es de tal calibre que solo puede ser propia de un analfabeto enamorado de Inestrillas (o de Marhuenda, que viene a ser lo mismo :mrgreen: ).


Está campe en la cola de descarga. :shock:
Yap, pero la pobre mulita verse salpicada de estos temas pues no sé, no me parece lo suyo.

Y sí también he visto a campe en cola. :sonrisa:

Avatar de Usuario
loga
Mensajes: 578
Registrado: Jue 09 Ago, 2012 13:54

Re: Criss Cross (Robert Siodmak, 1949) HD 720p Dual SE

Mensaje por loga » Jue 07 Ene, 2016 00:03

Muchas gracias maestros Dardo y DMMD. Grato recuerdo tengo de ella de cuando la descubrí en aquellos ciclos de cine negro de cuando sólo había dos canales de televisión. Renuevo la ilusión que tuve al adquirir el dvd con esta copia mejor.

Avatar de Usuario
DMMD
Mensajes: 1728
Registrado: Lun 27 Feb, 2012 14:16

Re: Criss Cross (Robert Siodmak, 1949) HD 720p Dual SE

Mensaje por DMMD » Jue 07 Ene, 2016 00:08

Magnifico Dardin, me daba a mi que hoy sería la liberación y la deje en lanzamiento, veo que la cosa va a tope.

Dardo escribió:Por supuesto el currazo se lo ha pegado DMMD

Anda, anda, exagerao :wink: un placer, como siempre.

Responder