Apache (Robert Aldrich, 1954) HD 720p Dual SE

Publica y encuentra enlaces p2p de filmes hasta 1980 en esta sección.
Avatar de Usuario
DMMD
Mensajes: 1728
Registrado: Lun 27 Feb, 2012 14:16

Apache (Robert Aldrich, 1954) HD 720p Dual SE

Mensaje por DMMD » Sab 09 May, 2015 17:57

Imagen



IMDb


Apache


Título original Apache
Año 1954
Duración 91 min.
País Imagen
Director Robert Aldrich
Guión James R. Webb
Música David Raksin
Fotografía Ernest Laszlo
Reparto
Burt Lancaster, Jean Peters, Charles Bronson, John Dehner, John McIntire, Paul Guilfoyle, Ian MacDonald, Monte Blue, Morris Ankrum, Walter Sande
Productora Metro-Goldwyn-Mayer
Género Western
Sinopsis
Después de años de sangrienta lucha contra los colonos y el ejército, el jefe apache Gerónimo se ve obligado a abandonar su tierra. Pero Massai (Lancaster), el guerrero más orgulloso de la tribu, se niega a aceptar la derrota y se enfrenta con astucia a la caballería. Y a medida que su cruzada se acerca al final, se dará cuenta de que debe perseverar, no sólo para salvar su vida, sino también para preservar el orgullo de su raza. (FILMAFFINITY)
Críticas
"Excelente caracterización de Lancaster dando vida al apache protagonista de este curioso western. Un lujo"
Fernando Morales: Diario El País






Código: Seleccionar todo

General
Unique ID                                : 209650674599808419771001781375223782899 (0x9DB9404F1EB9024485FF40CABF78DDF3)
Complete name                            : C:\Program Files (x86)\eMule\Incoming\1954-Apache.WEB-DL.720p.AC3[DMMD].mkv
Format                                   : Matroska
Format version                           : Version 4 / Version 2
File size                                : 3.17 GiB
Duration                                 : 1 h 27 min
Overall bit rate                         : 5 198 kb/s
Movie name                               : 1954-Apache.WEB-DL.720p.AC3[DMMD]
Encoded date                             : UTC 2016-12-05 15:47:50
Writing application                      : mkvmerge v9.0.1 ('Obstacles') 64bit
Writing library                          : libebml v1.3.3 + libmatroska v1.4.4
Attachments                              : 1954-Apache-Robert-Aldrich-2.jpg / Apache.jpg / Apache_(film)_poster.jpg

Video
ID                                       : 1
Format                                   : AVC
Format/Info                              : Advanced Video Codec
Format profile                           : High@L4.1
Format settings, CABAC                   : Yes
Format settings, ReFrames                : 9 frames
Codec ID                                 : V_MPEG4/ISO/AVC
Duration                                 : 1 h 27 min
Bit rate                                 : 4 586 kb/s
Width                                    : 1 280 pixels
Height                                   : 720 pixels
Display aspect ratio                     : 16:9
Frame rate mode                          : Constant
Frame rate                               : 23.976 FPS
Color space                              : YUV
Chroma subsampling                       : 4:2:0
Bit depth                                : 8 bits
Scan type                                : Progressive
Bits/(Pixel*Frame)                       : 0.208
Stream size                              : 2.80 GiB (88%)
Writing library                          : x264 core 148 r2638kMod 7599210
Encoding settings                        : cabac=1 / ref=9 / deblock=1:-3:-3 / analyse=0x3:0x133 / me=umh / subme=11 / psy=1 / fade_compensate=0.00 / psy_rd=1.00:0.00 / mixed_ref=1 / me_range=32 / chroma_me=1 / trellis=2 / 8x8dct=1 / cqm=0 / deadzone=21,11 / fast_pskip=0 / chroma_qp_offset=-2 / threads=6 / lookahead_threads=1 / sliced_threads=0 / nr=0 / decimate=0 / interlaced=0 / bluray_compat=0 / constrained_intra=0 / fgo=0 / bframes=8 / b_pyramid=2 / b_adapt=2 / b_bias=0 / direct=3 / weightb=1 / open_gop=0 / weightp=2 / keyint=250 / keyint_min=23 / scenecut=40 / intra_refresh=0 / rc=crf / mbtree=0 / crf=19.0000 / qcomp=0.60 / qpmin=0 / qpmax=69 / qpstep=4 / ip_ratio=1.40 / pb_ratio=1.30 / aq=1:1.00
Language                                 : English
Default                                  : Yes
Forced                                   : No

Audio #1
ID                                       : 2
Format                                   : E-AC-3
Format/Info                              : Enhanced Audio Coding 3
Format settings, Endianness              : Big
Codec ID                                 : A_EAC3
Duration                                 : 1 h 27 min
Bit rate mode                            : Constant
Bit rate                                 : 224 kb/s
Channel(s)                               : 2 channels
Channel positions                        : Front: L R
Sampling rate                            : 48.0 kHz
Frame rate                               : 187.500 FPS (256 spf)
Compression mode                         : Lossy
Stream size                              : 140 MiB (4%)
Language                                 : English
Default                                  : Yes
Forced                                   : No

Audio #2
ID                                       : 3
Format                                   : AC-3
Format/Info                              : Audio Coding 3
Mode extension                           : CM (complete main)
Format settings, Endianness              : Big
Codec ID                                 : A_AC3
Duration                                 : 1 h 27 min
Bit rate mode                            : Constant
Bit rate                                 : 192 kb/s
Channel(s)                               : 2 channels
Channel positions                        : Front: L R
Sampling rate                            : 48.0 kHz
Frame rate                               : 31.250 FPS (1536 spf)
Bit depth                                : 16 bits
Compression mode                         : Lossy
Stream size                              : 120 MiB (4%)
Title                                    : Dobale TVE 1983
Language                                 : Spanish
Default                                  : No
Forced                                   : No

Audio #3
ID                                       : 4
Format                                   : AC-3
Format/Info                              : Audio Coding 3
Mode extension                           : CM (complete main)
Format settings, Endianness              : Big
Codec ID                                 : A_AC3
Duration                                 : 1 h 27 min
Bit rate mode                            : Constant
Bit rate                                 : 192 kb/s
Channel(s)                               : 2 channels
Channel positions                        : Front: L R
Sampling rate                            : 48.0 kHz
Frame rate                               : 31.250 FPS (1536 spf)
Bit depth                                : 16 bits
Compression mode                         : Lossy
Stream size                              : 120 MiB (4%)
Title                                    : Doblaje original cine 1954
Language                                 : Spanish
Default                                  : No
Forced                                   : No

Text #1
ID                                       : 5
Format                                   : UTF-8
Codec ID                                 : S_TEXT/UTF8
Codec ID/Info                            : UTF-8 Plain Text
Duration                                 : 1 h 25 min
Bit rate                                 : 35 b/s
Count of elements                        : 605
Stream size                              : 22.5 KiB (0%)
Title                                    : Completos
Language                                 : Spanish
Default                                  : Yes
Forced                                   : No

Text #2
ID                                       : 6
Format                                   : UTF-8
Codec ID                                 : S_TEXT/UTF8
Codec ID/Info                            : UTF-8 Plain Text
Duration                                 : 38 min 13 s
Bit rate                                 : 0 b/s
Count of elements                        : 4
Stream size                              : 70.0 Bytes (0%)
Title                                    : Forzados
Language                                 : Spanish
Default                                  : No
Forced                                   : No

Text #3
ID                                       : 7
Format                                   : UTF-8
Codec ID                                 : S_TEXT/UTF8
Codec ID/Info                            : UTF-8 Plain Text
Duration                                 : 1 h 24 min
Bit rate                                 : 38 b/s
Count of elements                        : 749
Stream size                              : 24.0 KiB (0%)
Language                                 : English
Default                                  : No
Forced                                   : No

Menu
00:00:00.000                             : en:Chapter 1
00:04:44.760                             : en:Chapter 2
00:07:12.920                             : en:Chapter 3
00:10:17.040                             : en:Chapter 4
00:15:30.520                             : en:Chapter 5
00:21:30.960                             : en:Chapter 6
00:28:18.040                             : en:Chapter 7
00:33:35.480                             : en:Chapter 8
00:40:26.880                             : en:Chapter 9
00:48:38.200                             : en:Chapter 10
00:56:15.080                             : en:Chapter 11
01:01:22.680                             : en:Chapter 12
01:04:02.960                             : en:Chapter 13
01:07:38.880                             : en:Chapter 14
01:12:41.080                             : en:Chapter 15
01:17:34.640                             : en:Chapter 16



Imagen


Vídeo :

Nuevo encode partiendo de una fuente mejor que mi anterior hdtv, de un plumazo nos quitamos la marca de agua que dejaba en algunas partes la limpieza del logo y sobre todo se aprecia una mejora en cuanto a textura cinematográfica.

Seguramente muchos no aprecien este tipo de detalles en una visualización general y mas si solo se comprueba en reproducción, tampoco seré yo quién le quite esas ideas de la cabeza :mrgreen: pero el peso del vídeo es prácticamente el mismo, así que ....


Añadimos a la comparativa el nuevo encode (Web-dl)

Gracias a Dardo por: Burt Lancaster : Western en HDTV y...Bluray , dejo una comparativa del Hdtv 720p (16/9)


Web-dl Vs Hdtv (antiguo) Vs Hdtv MGM

Imagen
Imagen
Imagen

Audios

Para la sincro del doblaje he preferido partir de cero para que fuese una sincro limpia, he utilizado por un lado el proporcionado por Mercedes en su día (Dobale TVE 1983).

Imagen


Y por otro lado hemos añadido el proporcionado por hdjzgz (Doblaje original cine 1954)



Imagen

Mil gracias a ambos


Subtítulos

Los proporcionados por Mercedes para la sincro y además he creado unos forzados.


CAPTURAS

Imagen
Imagen
Imagen
Imagen
Imagen
Imagen


Enlaces de descarga

Imagen

1954-Apache.WEB-DL.720p.AC3(DMMD).mkv




Imagen




Otras opciones en DXC:

Apache (Robert Aldrich, 1954) DVDRip Dual SE


Filmografía Burt Lancaster en DXC



Hilo anterior
Spoiler: mostrar
Imagen



IMDb


Apache


Título original Apache
Año 1954
Duración 91 min.
País Imagen
Director Robert Aldrich
Guión James R. Webb
Música David Raksin
Fotografía Ernest Laszlo
Reparto
Burt Lancaster, Jean Peters, Charles Bronson, John Dehner, John McIntire, Paul Guilfoyle, Ian MacDonald, Monte Blue, Morris Ankrum, Walter Sande
Productora Metro-Goldwyn-Mayer
Género Western
Sinopsis
Después de años de sangrienta lucha contra los colonos y el ejército, el jefe apache Gerónimo se ve obligado a abandonar su tierra. Pero Massai (Lancaster), el guerrero más orgulloso de la tribu, se niega a aceptar la derrota y se enfrenta con astucia a la caballería. Y a medida que su cruzada se acerca al final, se dará cuenta de que debe perseverar, no sólo para salvar su vida, sino también para preservar el orgullo de su raza. (FILMAFFINITY)
Críticas
"Excelente caracterización de Lancaster dando vida al apache protagonista de este curioso western. Un lujo"
Fernando Morales: Diario El País






Código: Seleccionar todo

General
Unique ID                                : 186476759385258537584125241084730775843 (0x8C4A1E1361A1B5A58E8ADCD122699923)
Complete name                            : C:\Program Files (x86)\eMule\Incoming\1954-Apache.HDTV.x264.720p.Ac3-DMMD.mkv
Format                                   : Matroska
Format version                           : Version 4 / Version 2
File size                                : 2.84 GiB
Duration                                 : 1h 27mn
Overall bit rate                         : 4 657 Kbps
Movie name                               : 1954-Apache.HDTV.x264.720p.Ac3-DMMD
Encoded date                             : UTC 2015-05-08 13:41:19
Writing application                      : mkvmerge v7.8.0 ('River Man') 64bit built on Mar 27 2015 16:31:37
Writing library                          : libebml v1.3.1 + libmatroska v1.4.2
Attachements                             : 1954-Apache-Robert-Aldrich-2.jpg / Apache.jpg / Apache_(film)_poster.jpg
_STATISTICS_WRITING_APP                  : mkvmerge v7.8.0 ('River Man') 64bit built on Mar 27 2015 16:31:37
_STATISTICS_WRITING_DATE_UTC             : 2015-05-08 13:41:19
_STATISTICS_TAGS                         : BPS DURATION NUMBER_OF_FRAMES NUMBER_OF_BYTES
DURATION                                 : 01:24:51.828000000
NUMBER_OF_FRAMES                         : 630
NUMBER_OF_BYTES                          : 24732

Video
ID                                       : 1
Format                                   : AVC
Format/Info                              : Advanced Video Codec
Format profile                           : High@L4.1
Format settings, CABAC                   : Yes
Format settings, ReFrames                : 9 frames
Codec ID                                 : V_MPEG4/ISO/AVC
Duration                                 : 1h 27mn
Bit rate                                 : 4 180 Kbps
Width                                    : 1 280 pixels
Height                                   : 720 pixels
Display aspect ratio                     : 16:9
Frame rate mode                          : Constant
Frame rate                               : 23.976 fps
Color space                              : YUV
Chroma subsampling                       : 4:2:0
Bit depth                                : 8 bits
Scan type                                : Progressive
Bits/(Pixel*Frame)                       : 0.189
Stream size                              : 2.55 GiB (90%)
Writing library                          : x264 core 142 r2479kMod dd79a61
Encoding settings                        : cabac=1 / ref=9 / deblock=1:-3:-3 / analyse=0x3:0x133 / me=umh / subme=11 / psy=1 / fade_compensate=0.00 / psy_rd=1.00:0.00 / mixed_ref=1 / me_range=24 / chroma_me=1 / trellis=2 / 8x8dct=1 / cqm=0 / deadzone=21,11 / fast_pskip=0 / chroma_qp_offset=-2 / threads=6 / lookahead_threads=1 / sliced_threads=0 / nr=0 / decimate=0 / interlaced=0 / bluray_compat=0 / constrained_intra=0 / fgo=0 / bframes=8 / b_pyramid=2 / b_adapt=2 / b_bias=0 / direct=3 / weightb=1 / open_gop=0 / weightp=2 / keyint=250 / keyint_min=23 / scenecut=40 / intra_refresh=0 / rc=crf / mbtree=0 / crf=18.1000 / qcomp=0.60 / qpmin=0 / qpmax=69 / qpstep=4 / ip_ratio=1.30 / pb_ratio=1.20 / aq=1:1.00
Language                                 : English
Default                                  : Yes
Forced                                   : No
_STATISTICS_WRITING_APP                  : mkvmerge v7.8.0 ('River Man') 64bit built on Mar 27 2015 16:31:37
_STATISTICS_WRITING_DATE_UTC             : 2015-05-08 13:41:19
_STATISTICS_TAGS                         : BPS DURATION NUMBER_OF_FRAMES NUMBER_OF_BYTES
DURATION                                 : 01:27:20.861000000
NUMBER_OF_FRAMES                         : 125655
NUMBER_OF_BYTES                          : 2796827356

Audio #1
ID                                       : 2
Format                                   : AC-3
Format/Info                              : Audio Coding 3
Mode extension                           : CM (complete main)
Format settings, Endianness              : Big
Codec ID                                 : A_AC3
Duration                                 : 1h 27mn
Bit rate mode                            : Constant
Bit rate                                 : 192 Kbps
Channel(s)                               : 2 channels
Channel positions                        : Front: L R
Sampling rate                            : 48.0 KHz
Bit depth                                : 16 bits
Compression mode                         : Lossy
Stream size                              : 120 MiB (4%)
Language                                 : English
Default                                  : No
Forced                                   : No

Audio #2
ID                                       : 3
Format                                   : AC-3
Format/Info                              : Audio Coding 3
Mode extension                           : CM (complete main)
Format settings, Endianness              : Big
Codec ID                                 : A_AC3
Duration                                 : 1h 27mn
Bit rate mode                            : Constant
Bit rate                                 : 192 Kbps
Channel(s)                               : 2 channels
Channel positions                        : Front: L R
Sampling rate                            : 48.0 KHz
Bit depth                                : 16 bits
Compression mode                         : Lossy
Delay relative to video                  : 800ms
Stream size                              : 120 MiB (4%)
Language                                 : Spanish
Default                                  : No
Forced                                   : No

Text #1
ID                                       : 4
Format                                   : UTF-8
Codec ID                                 : S_TEXT/UTF8
Codec ID/Info                            : UTF-8 Plain Text
Language                                 : Spanish
Default                                  : No
Forced                                   : No

Text #2
ID                                       : 5
Format                                   : UTF-8
Codec ID                                 : S_TEXT/UTF8
Codec ID/Info                            : UTF-8 Plain Text
Language                                 : English
Default                                  : No
Forced                                   : No

Menu
00:00:00.000                             : en:Chapter 1
00:04:44.760                             : en:Chapter 2
00:07:12.920                             : en:Chapter 3
00:10:17.040                             : en:Chapter 4
00:15:30.520                             : en:Chapter 5
00:21:30.960                             : en:Chapter 6
00:28:18.040                             : en:Chapter 7
00:33:35.480                             : en:Chapter 8
00:40:26.880                             : en:Chapter 9
00:48:38.200                             : en:Chapter 10
00:56:15.080                             : en:Chapter 11
01:01:22.680                             : en:Chapter 12
01:04:02.960                             : en:Chapter 13
01:07:38.880                             : en:Chapter 14
01:12:41.080                             : en:Chapter 15
01:17:34.640                             : en:Chapter 16


Imagen


Gracias a Dardo por: Burt Lancaster : Western en HDTV y...Bluray , dejo una comparativa del Hdtv 720p (16/9)



Imagen
Imagen
Imagen




CAPTURAS

Imagen
Imagen
Imagen
Imagen
Imagen
Imagen







Enlaces de descarga

Imagen

1954-Apache.HDTV.x264.720p.Ac3-DMMD.mkv


[quote="Dardo"][quote="hdjzgz"]Doblaje original de cine 1954, sincronizado a esta copia.

Apache.Doblaje original cine 1954 Sincronizado - HDTV.x264.720p.Ac3-.ac3

Procede de una copia en VHS de su pase por Tele5 en Julio de 1992, la copia tenía pequeños microcortes, muy pocos, no se si por censura o por la copia de Tv, en esos pequeños cortes, no más de tres o cuatro, he incluido el doblaje de 1983. A Disfrutar. :)[/quote][/quote]


Imagen
Última edición por DMMD el Jue 08 Dic, 2016 10:39, editado 2 veces en total.

Avatar de Usuario
jomime
Mensajes: 607
Registrado: Vie 02 Mar, 2012 13:27

Re: Apache (Robert Aldrich, 1954) HD 720p Dual SE

Mensaje por jomime » Sab 09 May, 2015 18:16

Imagen

lo sep, toy palláp :mrgreen:

jmog
Mensajes: 972
Registrado: Mié 06 Mar, 2013 23:22

Re: Apache (Robert Aldrich, 1954) HD 720p Dual SE

Mensaje por jmog » Sab 09 May, 2015 21:27

Anda, pero si es el Dardo disfrazado de tenista suizo :mrgreen:
Muchas gracias DMMD :plas:

ostrata
Mensajes: 2180
Registrado: Mié 24 Mar, 2010 17:29

Re: Apache (Robert Aldrich, 1954) HD 720p Dual SE

Mensaje por ostrata » Sab 09 May, 2015 21:39

Gracias.

Saludos. :)

Avatar de Usuario
birdmanradio
Mensajes: 933
Registrado: Vie 18 May, 2007 11:26

Re: Apache (Robert Aldrich, 1954) HD 720p Dual SE

Mensaje por birdmanradio » Sab 09 May, 2015 22:00

Muchas gracias DMMD :plas: :plas: :plas:

Avatar de Usuario
basiccaos1
Mensajes: 390
Registrado: Dom 24 Feb, 2013 13:10

Re: Apache (Robert Aldrich, 1954) HD 720p Dual SE

Mensaje por basiccaos1 » Sab 09 May, 2015 22:39

Hau! DIMIDÍ. :D

Avatar de Usuario
Dardo
Arrow Thrower Clown
Mensajes: 16521
Registrado: Dom 19 Oct, 2003 02:00
Ubicación: Entre Encinas y Dolomías

Re: Apache (Robert Aldrich, 1954) HD 720p Dual SE

Mensaje por Dardo » Sab 09 May, 2015 23:41

:mrgreen:

:sonrisa:

:wink:

Avatar de Usuario
janca
Mensajes: 2175
Registrado: Dom 20 Dic, 2009 09:31

Re: Apache (Robert Aldrich, 1954) HD 720p Dual SE

Mensaje por janca » Dom 10 May, 2015 07:42

Muchas gracias DMMD

Avatar de Usuario
elmajete
Mensajes: 1017
Registrado: Vie 18 May, 2007 22:05

Re: Apache (Robert Aldrich, 1954) HD 720p Dual SE

Mensaje por elmajete » Dom 10 May, 2015 10:08

Muchas gracias DMMD :plas: :plas: :plas:

santi
Mensajes: 1045
Registrado: Vie 17 Ene, 2003 01:00

Re: Apache (Robert Aldrich, 1954) HD 720p Dual SE

Mensaje por santi » Dom 10 May, 2015 13:45

Gracias, maestro. Otra pa la saca. Se me acumula el trabajo y se me acaban definitivamente los huecos que abro en los discos. Estoy encerrado, pero esta semana me compro un 6 GB, lo malo es que tendré que hacer la migración a W7, y me da pánico no, pavor y una pereza inmensa. Pero no hay otra.

Avatar de Usuario
bull
Mensajes: 241
Registrado: Lun 23 Sep, 2013 14:22

Re: Apache (Robert Aldrich, 1954) HD 720p Dual SE

Mensaje por bull » Dom 10 May, 2015 14:52

Gracias DMMD

santi no te compres un 6GB que te durará un suspiro, cómprate un 6 TB , tendrás para algo mas, jeje.

Saludos.

santi
Mensajes: 1045
Registrado: Vie 17 Ene, 2003 01:00

Re: Apache (Robert Aldrich, 1954) HD 720p Dual SE

Mensaje por santi » Dom 10 May, 2015 15:06

bull escribió:Gracias DMMD

santi no te compres un 6GB que te durará un suspiro, cómprate un 6 TB , tendrás para algo mas, jeje.
¿Sí? Pues cómo ha debido cambiar el mundo. Allá por 1990 tenían en un departamento de mi curro un ordenador con 1 GB de disco duro (que solo estaba autorizado a manejar un tipo de gafas y bata blanca) y aquello parecía la NASA, y el tamaño del disco parecía tener capacidad para contener tres universos juntos. Así que pensé que con 6 ... :mrgreen:

El caso es que cuanto más grande es el disco, mayores los daños potenciales. Yo lo que hago es ir tirando viejos de vez en cuando. Ahora estoy en fase de pase a la reserva de los caviar green que voy cambiando por wd red nas, que son un poco más caros pero no tienen el problem del aparcado de cabezales, aunque la espada de damocles está siempre ahí, al acecho :shock: .

Avatar de Usuario
bull
Mensajes: 241
Registrado: Lun 23 Sep, 2013 14:22

Re: Apache (Robert Aldrich, 1954) HD 720p Dual SE

Mensaje por bull » Dom 10 May, 2015 21:52

Madre mia, 1990. Queda tan lejos ya... :cry:
La verdad es que yo soy de los que prefieren discos de gigas a los de teras, cada uno tiene sus ventajas e inconvenientes.
Saludos.

Avatar de Usuario
Spanish Jhonny
Mensajes: 2913
Registrado: Mar 18 Sep, 2012 16:01

Re: Apache (Robert Aldrich, 1954) HD 720p Dual SE

Mensaje por Spanish Jhonny » Lun 11 May, 2015 10:50

Muchas gracias

felipemarlou
Mensajes: 448
Registrado: Lun 07 Oct, 2013 15:18

Re: Apache (Robert Aldrich, 1954) HD 720p Dual SE

Mensaje por felipemarlou » Jue 11 Jun, 2015 11:50

Buen lifting al Dardo. :D Muchas gracias, DMMD.

hoboken71
Mensajes: 51
Registrado: Vie 10 Oct, 2008 10:35

Re: Apache (Robert Aldrich, 1954) HD 720p Dual SE

Mensaje por hoboken71 » Mar 16 Jun, 2015 07:18

Muchas Gracias. :plas:

amamuense
Mensajes: 18
Registrado: Vie 24 May, 2013 12:52

Re: Apache (Robert Aldrich, 1954) HD 720p Dual SE

Mensaje por amamuense » Jue 18 Jun, 2015 04:28

Gran película. Si no recuerdo mal esta fue la única en la que Burt hizo de indio. Gracias

Avatar de Usuario
Dardo
Arrow Thrower Clown
Mensajes: 16521
Registrado: Dom 19 Oct, 2003 02:00
Ubicación: Entre Encinas y Dolomías

Re: Apache (Robert Aldrich, 1954) HD 720p Dual SE

Mensaje por Dardo » Jue 18 Jun, 2015 09:50

amamuense escribió:Gran película. Si no recuerdo mal esta fue la única en la que Burt hizo de indio. Gracias
Y eso que se me da de maravilla hacer "el indio"... :mrgreen:
Imagen

Avatar de Usuario
paizoco
Mensajes: 2737
Registrado: Vie 21 Nov, 2003 01:00
Ubicación: Far West

Re: Apache (Robert Aldrich, 1954) HD 720p Dual SE

Mensaje por paizoco » Jue 18 Jun, 2015 21:53

Dardo escribió:
amamuense escribió:Gran película. Si no recuerdo mal esta fue la única en la que Burt hizo de indio. Gracias
Y eso que se me da de maravilla hacer "el indio"... :mrgreen:
Pintabas también bastante "el indio" en "El Halcón y la Flecha" y "El Temible Burlón" aunque no ibas tan maquillado. :wacky:

Avatar de Usuario
Dardo
Arrow Thrower Clown
Mensajes: 16521
Registrado: Dom 19 Oct, 2003 02:00
Ubicación: Entre Encinas y Dolomías

Re: Apache (Robert Aldrich, 1954) HD 720p Dual SE

Mensaje por Dardo » Dom 12 Jul, 2015 21:42

hdjzgz escribió:Doblaje original de cine 1954, sincronizado a esta copia.

Apache.Doblaje original cine 1954 Sincronizado - HDTV.x264.720p.Ac3-.ac3

Procede de una copia en VHS de su pase por Tele5 en Julio de 1992, la copia tenía pequeños microcortes, muy pocos, no se si por censura o por la copia de Tv, en esos pequeños cortes, no más de tres o cuatro, he incluido el doblaje de 1983. A Disfrutar. :)

Responder