Go Tell the Spartans (Ted Post, 1978) DVDRip Dual SE

Publica y encuentra enlaces p2p de filmes hasta 1980 en esta sección.
Responder
Avatar de Usuario
Dardo
Arrow Thrower Clown
Mensajes: 16521
Registrado: Dom 19 Oct, 2003 02:00
Ubicación: Entre Encinas y Dolomías

Go Tell the Spartans (Ted Post, 1978) DVDRip Dual SE

Mensaje por Dardo » Lun 11 Ago, 2014 12:45

Go Tell the Spartans
"La patrulla"
(Ted Post, 1978)
IMDB
Año de producción: 1978
País: Imagen
Dirección: Ted Post
Intérpretes: Burt Lancaster, Craig Wasson, Jonathan Goldsmith,
Marc Singer, Joe Unger, Dennis Howard, Evan Kim
Guión: Wendell Mayes (Novela: Daniel Ford)
Música: Dick Halligan
Fotografía: Harry Stradling Jr.
Duración: 114 min.
Género: Bélico | Guerra de Vietnam


Sinopsis: En 1964, en plena Guerra de Vietnam, un grupo de soldados norteamericanos deben llevar a cabo una misión en un lugar denominado Muc Wa. (Filmaffinity)

Comentario :
Recomendar una película minoritaria siempre es una gran responsabilidad, y por ello hay que estar muy seguro de ello. Yo lo hago con “La patrulla”. No es una obra maestra del subgénero de películas del Vietnam como “Platoon”, “El cazador” o “Apocalypse Now”, pero tiene algunos elementos tan significativos que la convierten en una rara avis dentro de los filmes ambientados en una de las guerras más duras y crueles de todos los tiempos.

Los dos puntos fuertes de la película son el guión de Wendell Mayes y la presencia de Burt Lancaster. Sobre lo primero señalar que Mayes fue uno de los guionistas más reconocidos y valorados de Hollywood, un hombre que escribió para Billy Wilder, Otto Preminger, Delmer Daves o Henry Hathaway entre otros, siempre en grandes películas. Aquí hace una adaptación estupenda de la novela de Daniel Ford, que le valió estar nominado a mejor Guión del año entre sus propios compañeros de profesión.

En cuanto a Burt Lancaster, está casi todo dicho, uno de los Everest dentro del mundo de los actores norteamericanos, y que aquí cojeando –por una lesión verdadera que padecía- nos encandila en el papel de ese comandante que nunca ascenderá más debido a su vida disoluta, pero siempre eficaz en lo profesional.

Lamentablemente estos elementos de que le imprimen a “La patrulla” un gran interés, son contrarrestados por una evidente carencia de medios que convierten al film en un indiscutible título de la serie B bélica. Y como siempre el talento del director influye mucho, Ted Post no es precisamente un desecho de virtudes, por lo que el resultado es irregular.

¿Vale la pena verla? Sin duda, sobre todo a los aficionados al género porque se encontrarán un Vietnam diferente al que estamos acostumbrados, “La patrulla” transcurre en 1964, mucho antes de la ofensiva del Tet o los bombardeos masivos o la caída de Saigón donde suelen transcurrir las películas más conocidos. Estos son los inicios de la intervención americana, cuando eran únicamente asesores militares y voluntarios los que allí llegaban. En muy pocos meses la cosa cambiaría radicalmente.
Fuente: vircenguetorix en filmaffinity
Datos del Ripeo
@@ Vídeo:
DVDRip anamórfico. Voy a empezar a omitir datos de las fuentes porque en vista que parece que van a empezar a ponerse duros con Gibraltar ya nadie está a salvo... :mrgreen:

@@ Audios:
Dentro del mkv, la VO en AC3, y el doblaje de toda la vida.

@@ Subtítulos:
Subtítulos en español dentro del mkv.
Imagen
***************************************
Datos Técnicos
## Ripeo Anamórfico ##

Resolution: 720 x 576 pixels --------- Displayed 768 x 418

Código: Seleccionar todo

General
Complete name                            : Go Tell the Spartans (1978) DVDRip Dual [Eng & Spa] Subs [DivXClásico.com].mkv
Format                                   : Matroska
Format version                           : Version 2
File size                                : 1.57 GiB
Duration                                 : 1h 50mn
Overall bit rate                         : 2 041 Kbps
Encoded date                             : UTC 2014-08-11 06:38:57
Writing application                      : mkvmerge v4.0.0 ('The Stars were mine') built on Jun  5 2010 17:44:09
Writing library                          : libebml v1.0.0 + libmatroska v1.0.0

Video
ID                                       : 1
Format                                   : AVC
Format/Info                              : Advanced Video Codec
Format profile                           : High@L4.1
Format settings, CABAC                   : Yes
Format settings, ReFrames                : 16 frames
Codec ID                                 : V_MPEG4/ISO/AVC
Duration                                 : 1h 50mn
Bit rate                                 : 1 616 Kbps
Width                                    : 720 pixels
Height                                   : 418 pixels
Display aspect ratio                     : 16:9
Frame rate                               : 25.000 fps
Color space                              : YUV
Chroma subsampling                       : 4:2:0
Bit depth                                : 8 bits
Scan type                                : Progressive
Bits/(Pixel*Frame)                       : 0.215
Stream size                              : 1.24 GiB (79%)
Writing library                          : x264 core 142 r2409 d6b4e63
Language                                 : English
Default                                  : No
Forced                                   : No

Audio #1
ID                                       : 2
Format                                   : AC-3
Format/Info                              : Audio Coding 3
Mode extension                           : CM (complete main)
Codec ID                                 : A_AC3
Duration                                 : 1h 50mn
Bit rate mode                            : Constant
Bit rate                                 : 192 Kbps
Channel(s)                               : 2 channels
Channel positions                        : Front: L R
Sampling rate                            : 48.0 KHz
Bit depth                                : 16 bits
Compression mode                         : Lossy
Stream size                              : 151 MiB (9%)
Language                                 : English
Default                                  : Yes
Forced                                   : No

Audio #2
ID                                       : 3
Format                                   : AC-3
Format/Info                              : Audio Coding 3
Mode extension                           : CM (complete main)
Codec ID                                 : A_AC3
Duration                                 : 1h 50mn
Bit rate mode                            : Constant
Bit rate                                 : 192 Kbps
Channel(s)                               : 2 channels
Channel positions                        : Front: L R
Sampling rate                            : 48.0 KHz
Bit depth                                : 16 bits
Compression mode                         : Lossy
Stream size                              : 151 MiB (9%)
Language                                 : Spanish
Default                                  : No
Forced                                   : No

Text
ID                                       : 4
Format                                   : UTF-8
Codec ID                                 : S_TEXT/UTF8
Codec ID/Info                            : UTF-8 Plain Text
Language                                 : Spanish
Default                                  : Yes
Forced                                   : No
Capturas

Imagen

Imagen

Imagen

Imagen

Imagen

Imagen

Imagen

Enlaces
--------------------------

Avatar de Usuario
birdmanradio
Mensajes: 933
Registrado: Vie 18 May, 2007 11:26

Re: Go Tell the Spartans (Ted Post, 1978) DVDRip Dual SE

Mensaje por birdmanradio » Lun 11 Ago, 2014 12:52

Muchas gracias Dardo, me gustan este tipo de películas :plas:

Avatar de Usuario
Spanish Jhonny
Mensajes: 2913
Registrado: Mar 18 Sep, 2012 16:01

Re: Go Tell the Spartans (Ted Post, 1978) DVDRip Dual SE

Mensaje por Spanish Jhonny » Lun 11 Ago, 2014 13:45

Me uno a la cola y a los agradecimientos ;)
Saludos

Avatar de Usuario
davinci1405
Mensajes: 574
Registrado: Mié 09 Dic, 2009 01:11

Re: Go Tell the Spartans (Ted Post, 1978) DVDRip Dual SE

Mensaje por davinci1405 » Lun 11 Ago, 2014 21:55

Muchas gracias, Dardo. :plas:
"Sólo dos cosas son infinitas, el universo y la estupidez humana... y no estoy seguro de lo primero". Albert Einstein

joramor
Mensajes: 1638
Registrado: Vie 05 Nov, 2010 19:55

Re: Go Tell the Spartans (Ted Post, 1978) DVDRip Dual SE

Mensaje por joramor » Lun 11 Ago, 2014 22:41

Muchas gracias Dardo. Salu2.

fenixuy
Mensajes: 31
Registrado: Lun 22 Mar, 2010 23:00

Re: Go Tell the Spartans (Ted Post, 1978) DVDRip Dual SE

Mensaje por fenixuy » Mar 12 Ago, 2014 22:52

Gracias por la peli.
Saludos

Avatar de Usuario
janca
Mensajes: 2175
Registrado: Dom 20 Dic, 2009 09:31

Re: Go Tell the Spartans (Ted Post, 1978) DVDRip Dual SE

Mensaje por janca » Jue 14 Ago, 2014 16:54

Gracias dardo

Avatar de Usuario
Dardo
Arrow Thrower Clown
Mensajes: 16521
Registrado: Dom 19 Oct, 2003 02:00
Ubicación: Entre Encinas y Dolomías

Re: Go Tell the Spartans (Ted Post, 1978) DVDRip Dual SE

Mensaje por Dardo » Mar 17 Feb, 2015 10:22

Martes lluvioso, buen día para repartir de nuevo unos megas... :wink:

Avatar de Usuario
plateiro
Mensajes: 939
Registrado: Dom 21 Mar, 2004 01:00

Re: Go Tell the Spartans (Ted Post, 1978) DVDRip Dual SE

Mensaje por plateiro » Mar 17 Feb, 2015 11:01

Esta no la tenía. :cry: Me apunto al reparto.
Gracias de nuevo.
Saludos :wink:
When an actor comes to me and wants to discuss his character, I say, "It's in the script". If he says, "But what's my motivation?", I say, "Your salary".
Alfred Hitchcock

oslusa
Mensajes: 19
Registrado: Mié 24 Abr, 2019 01:30

Re: Go Tell the Spartans (Ted Post, 1978) DVDRip Dual SE

Mensaje por oslusa » Mié 24 Abr, 2019 23:44

Muchas gracias por la película Dardo

Responder