En el calor de la noche (Norman Jewison, 1967) HD 1080 / 720p Dual SE

Publica y encuentra enlaces p2p de filmes hasta 1980 en esta sección.
Avatar de Usuario
jomime
Mensajes: 615
Registrado: Vie 02 Mar, 2012 13:27

En el calor de la noche (Norman Jewison, 1967) HD 1080 / 720p Dual SE

Mensaje por jomime » Vie 13 Jun, 2014 20:19

Imagen

En el calor de la noche (1967)(Thriller) BDrip 720p (Dual.AC3)(Sub)
IMDb
TÍTULO ORIGINAL: In the Heat of the Night
AÑO: 1967
DURACIÓN: 109 min.
PAÍS: Imagen
DIRECTOR: Norman Jewison
GUIÓN: Stirling Silliphant (Novela: John Ball)
MÚSICA: Quincy Jones
FOTOGRAFÍA: Haskell Wexler
REPARTO: Sidney Poitier, Rod Steiger, Warren Oates, Lee Grant, Quentin Dean, James Patterson, Matt Clark, Scott Wilson
PRODUCTORA: Warner Bros
GÉNERO: Thriller. Intriga. Drama | Vida rural (Norteamérica). Drama sureño. Racismo

SINOPSIS:
En una pequeña población de Mississippi, el policía Sam Wood (Warren Oates) descubre el cadáver de un industrial. Poco después, detiene en la estación a un hombre negro que, tras ser interrogado por el jefe de la policía local, Billl Gillespie (Rod Steiger), resulta ser un inspector de la policía de Filadelfia llamado Virgil Tibbs (Sidney Poitier). Ambos policías deciden colaborar para investigar el asesinato. (FILMAFFINITY)

Código: Seleccionar todo

General
Complete name                            : En el calor de la noche (1967) Bdrip 720p Dual x jomime.mkv
Format                                   : Matroska
Format version                           : Version 4 / Version 2
File size                                : 4.81 GiB
Duration                                 : 1h 50mn
Overall bit rate                         : 6 262 Kbps
Encoded date                             : UTC 2014-06-12 12:56:13
Writing application                      : mkvmerge v6.7.0 ('Back to the Ground') 64bit built on Jan  8 2014 15:10:52
Writing library                          : libebml v1.3.0 + libmatroska v1.4.1

Video
ID                                       : 1
Format                                   : AVC
Format/Info                              : Advanced Video Codec
Format profile                           : High@L4.1
Format settings, CABAC                   : Yes
Format settings, ReFrames                : 9 frames
Codec ID                                 : V_MPEG4/ISO/AVC
Duration                                 : 1h 50mn
Bit rate                                 : 4 858 Kbps
Width                                    : 1 280 pixels
Height                                   : 692 pixels
Display aspect ratio                     : 1.85:1
Frame rate mode                          : Constant
Frame rate                               : 23.976 fps
Color space                              : YUV
Chroma subsampling                       : 4:2:0
Bit depth                                : 8 bits
Scan type                                : Progressive
Bits/(Pixel*Frame)                       : 0.229
Stream size                              : 3.73 GiB (78%)
Writing library                          : x264 core 133 r2334 a3ac64b
Encoding settings                        : cabac=1 / ref=9 / deblock=1:-1:-1 / analyse=0x3:0x133 / me=umh / subme=10 / psy=1 / psy_rd=1.00:0.15 / mixed_ref=1 / me_range=24 / chroma_me=1 / trellis=2 / 8x8dct=1 / cqm=0 / deadzone=21,11 / fast_pskip=1 / chroma_qp_offset=-3 / threads=18 / lookahead_threads=3 / sliced_threads=0 / nr=0 / decimate=1 / interlaced=0 / bluray_compat=0 / constrained_intra=0 / bframes=8 / b_pyramid=2 / b_adapt=2 / b_bias=0 / direct=3 / weightb=1 / open_gop=0 / weightp=2 / keyint=250 / keyint_min=23 / scenecut=40 / intra_refresh=0 / rc_lookahead=60 / rc=crf / mbtree=1 / crf=19.0 / qcomp=0.60 / qpmin=0 / qpmax=69 / qpstep=4 / ip_ratio=1.40 / aq=1:1.00
Language                                 : English
Default                                  : Yes
Forced                                   : No

Audio #1
ID                                       : 2
Format                                   : AC-3
Format/Info                              : Audio Coding 3
Mode extension                           : CM (complete main)
Format settings, Endianness              : Big
Codec ID                                 : A_AC3
Duration                                 : 1h 50mn
Bit rate mode                            : Constant
Bit rate                                 : 640 Kbps
Channel count                            : 1 channel
Channel positions                        : Front: C
Sampling rate                            : 48.0 KHz
Bit depth                                : 16 bits
Compression mode                         : Lossy
Stream size                              : 504 MiB (10%)
Title                                    : Español
Language                                 : Spanish
Default                                  : Yes
Forced                                   : No

Audio #2
ID                                       : 3
Format                                   : AC-3
Format/Info                              : Audio Coding 3
Mode extension                           : CM (complete main)
Format settings, Endianness              : Big
Codec ID                                 : A_AC3
Duration                                 : 1h 50mn
Bit rate mode                            : Constant
Bit rate                                 : 640 Kbps
Channel count                            : 6 channels
Channel positions                        : Front: L C R, Side: L R, LFE
Sampling rate                            : 48.0 KHz
Bit depth                                : 16 bits
Compression mode                         : Lossy
Stream size                              : 504 MiB (10%)
Title                                    : Inglés
Language                                 : English
Default                                  : No
Forced                                   : No

Text #1
ID                                       : 4
Format                                   : UTF-8
Codec ID                                 : S_TEXT/UTF8
Codec ID/Info                            : UTF-8 Plain Text
Title                                    : Forzados
Language                                 : Spanish
Default                                  : Yes
Forced                                   : Yes

Text #2
ID                                       : 5
Format                                   : UTF-8
Codec ID                                 : S_TEXT/UTF8
Codec ID/Info                            : UTF-8 Plain Text
Title                                    : Español
Language                                 : Spanish
Default                                  : No
Forced                                   : No

Text #3
ID                                       : 6
Format                                   : UTF-8
Codec ID                                 : S_TEXT/UTF8
Codec ID/Info                            : UTF-8 Plain Text
Title                                    : Latino
Language                                 : Spanish
Default                                  : No
Forced                                   : No

Text #4
ID                                       : 7
Format                                   : UTF-8
Codec ID                                 : S_TEXT/UTF8
Codec ID/Info                            : UTF-8 Plain Text
Title                                    : Inglés
Language                                 : English
Default                                  : No
Forced                                   : No
Fuente : Full Bluray
Tamaño : 4.81 GIB
Audio : Español/Inglés
Resolución: 1280p X 692p
Subtítulos:Forzados/Español/Latino/Inglés
Enlaces DD
Spoiler: mostrar
Relink.us - Protected Links

Avatar de Usuario
LuisNieto
Mensajes: 1132
Registrado: Mié 29 Feb, 2012 16:36
Ubicación: 308 Negra Arroyo Lane

Re: En el calor de la noche (Norman Jewison, 1967) HD 720p Dual SE

Mensaje por LuisNieto » Vie 13 Jun, 2014 20:44

Imagen

Mucho calor!!

Avatar de Usuario
loga
Mensajes: 580
Registrado: Jue 09 Ago, 2012 13:54

Re: En el calor de la noche (Norman Jewison, 1967) HD 720p Dual SE

Mensaje por loga » Vie 13 Jun, 2014 21:45

Ardo. Muchas gracias, jo.

Avatar de Usuario
Spanish Jhonny
Mensajes: 3329
Registrado: Mar 18 Sep, 2012 16:01

Re: En el calor de la noche (Norman Jewison, 1967) HD 720p Dual SE

Mensaje por Spanish Jhonny » Vie 13 Jun, 2014 21:56

Una de hielos....
Muchas gracias jomime

jmog
Mensajes: 973
Registrado: Mié 06 Mar, 2013 23:22

Re: En el calor de la noche (Norman Jewison, 1967) HD 720p Dual SE

Mensaje por jmog » Vie 13 Jun, 2014 23:56

Que título más apropiado, por aquí la noche está calentita y en el vestuario de la selección de fútbol más todavía :mrgreen:
Gracias jomi

Avatar de Usuario
birdmanradio
Mensajes: 943
Registrado: Vie 18 May, 2007 11:26

Re: En el calor de la noche (Norman Jewison, 1967) HD 720p Dual SE

Mensaje por birdmanradio » Sab 14 Jun, 2014 09:36

Muchas gracias jomi :plas: :plas: :plas:

Avatar de Usuario
duby
Mensajes: 1457
Registrado: Mié 04 Feb, 2004 01:00

Re: En el calor de la noche (Norman Jewison, 1967) HD 720p Dual SE

Mensaje por duby » Sab 14 Jun, 2014 11:37

Una fuente completa más.
Muchísimas gracias jomime
:yes: :yes: :yes:

Avatar de Usuario
fronky
[FrOnkY]
Mensajes: 1962
Registrado: Jue 10 Dic, 2009 16:47
Ubicación: EntreCorchetes

Re: En el calor de la noche (Norman Jewison, 1967) HD 720p Dual SE

Mensaje por fronky » Sab 14 Jun, 2014 12:02

En toa la noshe no sa degkalgao ni 50MB.
Y pol DDp, menosh.

Serán las temperaturas sofocantes esas...
Imagen

Antígono
Mensajes: 617
Registrado: Vie 01 Mar, 2013 18:59

Re: En el calor de la noche (Norman Jewison, 1967) HD 720p Dual SE

Mensaje por Antígono » Sab 14 Jun, 2014 19:47

Gracias jomime, descargando a buen ritmo por la mula :sonrisa:

Avatar de Usuario
DMMD
Mensajes: 1885
Registrado: Lun 27 Feb, 2012 14:16

Re: En el calor de la noche (Norman Jewison, 1967) HD 720p Dual SE

Mensaje por DMMD » Sab 14 Jun, 2014 23:05

Que calor



Imagen


Gracias :sonrisa:

Avatar de Usuario
javisambo
Hombre renacentista. Judoka.
Mensajes: 2231
Registrado: Mar 07 Ago, 2012 07:51
Ubicación: Génova 13

Re: En el calor de la noche (Norman Jewison, 1967) HD 720p Dual SE

Mensaje por javisambo » Sab 14 Jun, 2014 23:54

Joder que volumen! :mrgreen:

Avatar de Usuario
janca
Mensajes: 2246
Registrado: Dom 20 Dic, 2009 09:31

Re: En el calor de la noche (Norman Jewison, 1967) HD 720p Dual SE

Mensaje por janca » Dom 15 Jun, 2014 07:53

Gracias Jomime

Avatar de Usuario
dhrapi
Dipsómano consagrado.
Mensajes: 6352
Registrado: Jue 06 Nov, 2003 01:00
Ubicación: En la boda de Ignatius Reilly; con Tupp.

Re: En el calor de la noche (Norman Jewison, 1967) HD 720p Dual SE

Mensaje por dhrapi » Mié 18 Jun, 2014 13:11

Coñe, que se me había pasao.

Muchas gracias, jomi. :wink:
Jamás saldré vivo de este mundo.

Avatar de Usuario
Dardo
Arrow Thrower Clown
Mensajes: 17292
Registrado: Dom 19 Oct, 2003 02:00
Ubicación: Entre Encinas y Dolomías

Re: En el calor de la noche (Norman Jewison, 1967) HD 720p Dual SE

Mensaje por Dardo » Dom 22 Jun, 2014 13:14

Mmmm qué sorpresa :mrgreen:

Peliculón!!!, a ver si hago sitio y tal para empezar a recolectar...

Grande JomiS! 8)

Avatar de Usuario
carrido
Mensajes: 611
Registrado: Mié 19 Feb, 2014 15:58
Ubicación: Freedonia

Re: En el calor de la noche (Norman Jewison, 1967) HD 720p Dual SE

Mensaje por carrido » Dom 14 Oct, 2018 14:20

Muchísimas gracias jomime;uno de esos peliculones inolvidables que hizo Hollywood en los años 60.Duelo de titanes:Steiger-Poitier en toda la película.Por descontado que es uno de mis Thrillers favoritos de todos los tiempos.
Carrido

joramor
Mensajes: 1827
Registrado: Vie 05 Nov, 2010 19:55

Re: En el calor de la noche (Norman Jewison, 1967) HD 720p Dual SE

Mensaje por joramor » Dom 14 Oct, 2018 21:51

Muchas gracias jomime. Salu2.

Avatar de Usuario
roisiano
Polemista nato
Mensajes: 5666
Registrado: Dom 17 Jul, 2005 02:00
Ubicación: Al final del río

Re: En el calor de la noche (Norman Jewison, 1967) HD 720p Dual SE

Mensaje por roisiano » Sab 23 Mar, 2019 22:40

Pues voy a hacer un ripeo del BD Criterion y tal.
La mejora de imagen es importante:

http://www.dvdbeaver.com/film2/dvdrevie ... lu-ray.htm
Última edición por roisiano el Lun 25 Mar, 2019 08:09, editado 2 veces en total.
Florentino, fíchame.
Por 6.000 € netos mensuales te convierto en el mejor presidente de la historia.

Avatar de Usuario
MILLER
Mensajes: 464
Registrado: Sab 01 Oct, 2005 02:00
Ubicación: Delante del ordenador

Re: En el calor de la noche (Norman Jewison, 1967) HD 720p Dual SE

Mensaje por MILLER » Dom 24 Mar, 2019 15:02

roisiano escribió:
Sab 23 Mar, 2019 22:40
Pues voy a hacer un ripeo del BD Criterion y tal.
La mejora de imagen es importante:

http://www.dvdbeaver.com/film2/dvdrevie ... lu-ray.htm
:plas: :plas: :mrgreen: :mrgreen:

Avatar de Usuario
roisiano
Polemista nato
Mensajes: 5666
Registrado: Dom 17 Jul, 2005 02:00
Ubicación: Al final del río

In the Heat of the Night (Norman Jewison, 1967) BDRip 1080p Dual+SE

Mensaje por roisiano » Lun 25 Mar, 2019 08:11

En el calor de la noche (In the Heat of the Night) (Norman Jewison, 1967)


Imagen
Imagen
Imagen

Filmaffinity | IMDb

Guion: Stirling Silliphant (Novela: John Ball)
Música: Quincy Jones
Fotografía: Haskell Wexler
Reparto: Sidney Poitier, Rod Steiger, Warren Oates, Lee Grant, Quentin Dean, James Patterson, Matt Clark, Scott Wilson, Harry Dean Stanton
Productora: The Mirisch Corporation
Género: Thriller | Intriga | Drama | Vida rural (Norteamérica) | Drama sureño | Racismo

Sinopsis:
En una pequeña población de Mississippi, el policía Sam Wood (Warren Oates) descubre el cadáver de un industrial. Poco después, detiene en la estación a un hombre negro que, tras ser interrogado por el jefe de la policía local, Billl Gillespie (Rod Steiger), resulta ser un inspector de la policía de Filadelfia llamado Virgil Tibbs (Sidney Poitier). Ambos policías deciden colaborar para investigar el asesinato. (FILMAFFINITY)




Gracias a quienes compartieron el BD.
Spoiler: mostrar
Dadas las (extrañas) circunstancias en las que actualmente parecemos movernos en el mundo p2p (en especial, en lo relativo a los trackers privados), de aquí en adelante haré "agradecimientos genéricos" a quienes compartieron la fuente original y no enlazaré a dicha fuente original en mis posts.
Disculpen las molestias
Detalles de la edición (4)


------------------------------

Configuración del ripeo (vídeo / audio):

x264:
"C:\x264.exe" --preset veryslow --tune film --crf 19.3 --qcomp 0.57 --deblock -2:-1 --level 4.1 --output "C:\mi_ripeo.mkv" "C:\mi_script.avs"

FFmpeg (para audio V.O. AC3 5.1):
stdout.w64 | ffmpeg -i - -c:a ac3 -b:a 640k -center_mixlev 0.707

QAAC (para AAC):
qaac -V 127 --ignorelength --adts --no-delay -o

------------------------------


Imagen
Imagen
Imagen
Imagen
Imagen
Imagen
Imagen
Imagen
Imagen
Imagen
Imagen
Imagen
Imagen
Imagen


Código: Seleccionar todo

Format : Matroska 
Format version : Version 4 
File size : 16.5 GiB 
Duration : 1 h 50 min 
Overall bit rate : 21.4 Mb/s 
Writing application : mkvmerge v31.0.0 ('Dolores In A Shoestand') 64-bit 
Writing library : libebml v1.3.6 + libmatroska v1.4.9 

Video 
ID : 1 
Format : AVC 
Format/Info : Advanced Video Codec 
Format profile : High@L4.1 
Format settings : CABAC / 4 Ref Frames 
Format settings, CABAC : Yes 
Format settings, RefFrames : 4 frames 
Codec ID : V_MPEG4/ISO/AVC 
Duration : 1 h 50 min 
Bit rate : 20.4 Mb/s 
Width : 1 920 pixels 
Height : 1 036 pixels 
Display aspect ratio : 1.85:1 
Frame rate mode : Constant 
Frame rate : 23.976 (24000/1001) FPS 
Color space : YUV 
Chroma subsampling : 4:2:0 
Bit depth : 8 bits 
Scan type : Progressive 
Bits/(Pixel*Frame) : 0.428 
Stream size : 15.7 GiB (96%) 
Writing library : x264 core 157 r2969 d4099dd 
Encoding settings : cabac=1 / ref=4 / deblock=1:-2:-1 / analyse=0x3:0x133 / me=umh / subme=10 / psy=1 / psy_rd=1.00:0.15 / mixed_ref=1 / me_range=24 / chroma_me=1 / trellis=2 / 8x8dct=1 / cqm=0 / deadzone=21,11 / fast_pskip=1 / chroma_qp_offset=-3 / threads=6 / lookahead_threads=1 / sliced_threads=0 / nr=0 / decimate=1 / interlaced=0 / bluray_compat=0 / constrained_intra=0 / bframes=8 / b_pyramid=2 / b_adapt=2 / b_bias=0 / direct=3 / weightb=1 / open_gop=0 / weightp=2 / keyint=250 / keyint_min=23 / scenecut=40 / intra_refresh=0 / rc_lookahead=60 / rc=crf / mbtree=1 / crf=19.3 / qcomp=0.57 / qpmin=0 / qpmax=69 / qpstep=4 / ip_ratio=1.40 / aq=1:1.00 
Language : English 
Default : Yes 
Forced : No 

Audio #1 
ID : 2 
Format : AAC LC 
Format/Info : Advanced Audio Codec Low Complexity 
Codec ID : A_AAC-2 
Duration : 1 h 50 min 
Bit rate : 151 kb/s 
Channel(s) : 1 channel 
Channel layout : C 
Sampling rate : 48.0 kHz 
Frame rate : 46.875 FPS (1024 SPF) 
Compression mode : Lossy 
Stream size : 119 MiB (1%) 
Title : AAC 1.0 
Language : English 
Writing library : qaac 2.68, CoreAudioToolbox 7.10.9.0
Encoding settings : qaac -V 127 --ignorelength --adts --no-delay -o
VBR min./avg./max. : 4 / 153 / 252 Kb/s. 
Duration.......... : 6620.629 sec., (1h. 50m. 20.629s.)
Default : Yes 
Forced : No 

Audio #2 
ID : 3 
Format : AC-3 
Format/Info : Audio Coding 3 
Commercial name : Dolby Digital 
Codec ID : A_AC3 
Duration : 1 h 50 min 
Bit rate mode : Constant 
Bit rate : 640 kb/s 
Channel(s) : 6 channels 
Channel layout : L R C LFE Ls Rs 
Sampling rate : 48.0 kHz 
Frame rate : 31.250 FPS (1536 SPF) 
Bit depth : 16 bits 
Compression mode : Lossy 
Delay relative to video : 14 ms 
Stream size : 505 MiB (3%) 
Title : AC3 5.1 
Language : English 
Service kind : Complete Main 
Default : No 
Forced : No 

Audio #3 
ID : 4 
Format : AAC LC 
Format/Info : Advanced Audio Codec Low Complexity 
Codec ID : A_AAC-2 
Duration : 1 h 50 min 
Bit rate : 120 kb/s 
Channel(s) : 1 channel 
Channel layout : C 
Sampling rate : 48.0 kHz 
Frame rate : 46.875 FPS (1024 SPF) 
Compression mode : Lossy 
Stream size : 94.8 MiB (1%) 
Title : Doblaje 
Language : Spanish 
Writing library : qaac 2.68, CoreAudioToolbox 7.10.9.0
Encoding settings : qaac -V 127 --ignorelength --adts --no-delay -o
VBR min./avg./max. : 4 / 122 / 255 Kb/s. 
Duration.......... : 6620.629 sec., (1h. 50m. 20.629s.)
Default : No 
Forced : No 

Text #1 
ID : 5 
Format : UTF-8 
Codec ID : S_TEXT/UTF8 
Codec ID/Info : UTF-8 Plain Text 
Duration : 1 h 49 min 
Bit rate : 39 b/s 
Count of elements : 1036 
Stream size : 31.5 KiB (0%) 
Title : Castellano 
Language : Spanish 
Default : Yes 
Forced : No 

Text #2 
ID : 6 
Format : UTF-8 
Codec ID : S_TEXT/UTF8 
Codec ID/Info : UTF-8 Plain Text 
Duration : 1 h 49 min 
Bit rate : 47 b/s 
Count of elements : 1028 
Stream size : 37.8 KiB (0%) 
Title : Español neutro 
Language : Spanish 
Default : No 
Forced : No 

Text #3 
ID : 7 
Format : UTF-8 
Codec ID : S_TEXT/UTF8 
Codec ID/Info : UTF-8 Plain Text 
Duration : 1 h 49 min 
Bit rate : 51 b/s 
Count of elements : 1227 
Stream size : 41.4 KiB (0%) 
Language : English 
Default : No 
Forced : No 

Text #4 
ID : 8 
Format : UTF-8 
Codec ID : S_TEXT/UTF8 
Codec ID/Info : UTF-8 Plain Text 
Duration : 1 h 49 min 
Bit rate : 49 b/s 
Count of elements : 1054 
Stream size : 39.5 KiB (0%) 
Title : SDH 
Language : English 
Default : No 
Forced : No 

Text #5 
ID : 9 
Format : UTF-8 
Codec ID : S_TEXT/UTF8 
Codec ID/Info : UTF-8 Plain Text 
Duration : 1 h 49 min 
Bit rate : 3 b/s 
Count of elements : 86 
Stream size : 3.13 KiB (0%) 
Title : Forzados 
Language : Spanish 
Default : No 
Forced : Yes 

Text #6 
ID : 10 
Format : VobSub 
Muxing mode : zlib 
Codec ID : S_VOBSUB 
Codec ID/Info : Picture based subtitle format used on DVDs 
Duration : 1 h 48 min 
Bit rate : 4 822 b/s 
Count of elements : 963 
Stream size : 3.73 MiB (0%) 
Title : Castellano (Vobsubs) 
Language : Spanish 
Default : No 
Forced : No 

Text #7 
ID : 11 
Format : VobSub 
Muxing mode : zlib 
Codec ID : S_VOBSUB 
Codec ID/Info : Picture based subtitle format used on DVDs 
Duration : 1 h 46 min 
Bit rate : 5 858 b/s 
Count of elements : 955 
Stream size : 4.48 MiB (0%) 
Title : Español neutro (vobsubs) 
Language : Spanish 
Default : No 
Forced : No 

Text #8 
ID : 12 
Format : VobSub 
Muxing mode : zlib 
Codec ID : S_VOBSUB 
Codec ID/Info : Picture based subtitle format used on DVDs 
Duration : 1 h 49 min 
Bit rate : 11.5 kb/s 
Count of elements : 1360 
Stream size : 8.99 MiB (0%) 
Title : English SDH (Vobsubs) 
Language : English 
Default : No 
Forced : No 

Text #9 
ID : 13 
Format : VobSub 
Muxing mode : zlib 
Codec ID : S_VOBSUB 
Codec ID/Info : Picture based subtitle format used on DVDs 
Duration : 1 h 48 min 
Bit rate : 4 924 b/s 
Count of elements : 949 
Stream size : 3.81 MiB (0%) 
Language : French 
Default : No 
Forced : No 

Text #10 
ID : 14 
Format : VobSub 
Muxing mode : zlib 
Codec ID : S_VOBSUB 
Codec ID/Info : Picture based subtitle format used on DVDs 
Duration : 1 h 48 min 
Bit rate : 5 943 b/s 
Count of elements : 997 
Stream size : 4.60 MiB (0%) 
Language : German 
Default : No 
Forced : No 

Text #11 
ID : 15 
Format : VobSub 
Muxing mode : zlib 
Codec ID : S_VOBSUB 
Codec ID/Info : Picture based subtitle format used on DVDs 
Duration : 1 h 48 min 
Bit rate : 4 937 b/s 
Count of elements : 886 
Stream size : 3.82 MiB (0%) 
Language : Italian 
Default : No 
Forced : No 

Text #12 
ID : 16 
Format : VobSub 
Muxing mode : zlib 
Codec ID : S_VOBSUB 
Codec ID/Info : Picture based subtitle format used on DVDs 
Duration : 1 h 47 min 
Bit rate : 5 268 b/s 
Count of elements : 987 
Stream size : 4.04 MiB (0%) 
Title : Brazilian 
Language : Portuguese 
Default : No 
Forced : No 

Text #13 
ID : 17 
Format : VobSub 
Muxing mode : zlib 
Codec ID : S_VOBSUB 
Codec ID/Info : Picture based subtitle format used on DVDs 
Duration : 1 h 48 min 
Bit rate : 4 840 b/s 
Count of elements : 938 
Stream size : 3.75 MiB (0%) 
Language : Portuguese 
Default : No 
Forced : No 

Text #14 
ID : 18 
Format : VobSub 
Muxing mode : zlib 
Codec ID : S_VOBSUB 
Codec ID/Info : Picture based subtitle format used on DVDs 
Duration : 1 h 48 min 
Bit rate : 4 872 b/s 
Count of elements : 941 
Stream size : 3.77 MiB (0%) 
Language : Greek 
Default : No 
Forced : No 

Text #15 
ID : 19 
Format : VobSub 
Muxing mode : zlib 
Codec ID : S_VOBSUB 
Codec ID/Info : Picture based subtitle format used on DVDs 
Duration : 1 h 49 min 
Bit rate : 3 509 b/s 
Count of elements : 894 
Stream size : 2.75 MiB (0%) 
Language : Japanese 
Default : No 
Forced : No 

Menu 
00:00:00.000 : en:Welcome to Sparta 
00:11:58.509 : en:$162.39 
00:22:02.530 : en:Homicide Expert 
00:26:16.784 : en:Case Closed 
00:39:41.838 : en:Harvey's Story 
00:46:47.638 : en:A Whipping Boy 
00:55:28.909 : en:Making Trouble 
00:58:59.828 : en:Endicott 
01:06:20.185 : en:Bad Manners 
01:13:12.138 : en:Officer Wood 
01:20:26.905 : en:A Little Too Far 
01:32:14.612 : en:Secrets 
01:39:48.274 : en:Mama Caleba 
01:46:14.952 : en:Now Departing




:arrow: BDRip Dual (V.O. - doblaje en castellano) 1080p, con subtítulos en español (castellano y neutro), inglés, francés, alemán... y unos cuantos más en el contenedor MKV (16.47 GBs)

:arrow: Subtítulos en español e inglés por separado
, por si alguien los necesita para... (121 KBs)
Spoiler: mostrar
ed2k://|file|In.the.Heat.of.the.Night.1967.BDRip.x264.1080p.AAC.AC3.Dual.mkv|17679645374|1D76A3D100542327F0D71D4EA118E5F5|h=PD2WVV56V6U4XTS76A3XMNRIOTY3WKTF|/
ed2k://|file|In.the.Heat.of.the.Night.1967.BDRip.x264.1080p.AAC.AC3.Dual.zip|123849|B02DBB521C6B955A8F01A15EFF5AD926|h=QNEEWNOGZXMT4LYREQ35ZZRNEITHAQD2|/

Se ofrecen 2 audios V.O.:
a) Un AAC mono del BD Crit.
b) Un AC3 5.1 procedente del BD de MGM.

Choose yourself :mrgreen:


El doblaje (que supongo que será este) y los subtítulos .srt se tomaron de un ripeo de jomime (muchas gracias), resincronizados para este ripeo. Mínimas correcciones en ambos casos, más allá del ajuste inicial.


¿Por qué en este caso se "upgradea" un BDRip?
Porque la edición Criterion es muy superior a la de MGM, básicamente:
:arrow: Comparativa de las ediciones.
Hay una diferencia muy significativa en la calidad de imagen de la fuente de partida.





:arrow: Cómo buscar archivos en emule. Necesario para buscar lo anterior...





----------------------------------------------------


Imagen Imagen

Última versión del codec x264 (inglés) | Cómo crear BDRips MKV/x264 con UsEac3To + MeGui (español)
Manual de ripeo con x264 en línea de comandos (español) (1) (2) (3) | Parámetros de codificación (inglés)
Matroska en wikipedia (español) | MKVToolnix, herramientas de edición para matroska (inglés) | Añadir cadenas de audio o subtítulos con MKVToolnix (español)
gMKVExtractGUI (inglés) | MKVExtractGui (inglés) | Manual de extracción de cadenas de audio/vídeo/subtítulos en MKV (español)
Florentino, fíchame.
Por 6.000 € netos mensuales te convierto en el mejor presidente de la historia.

Avatar de Usuario
Spanish Jhonny
Mensajes: 3329
Registrado: Mar 18 Sep, 2012 16:01

Re: En el calor de la noche (Norman Jewison, 1967) HD 720p Dual SE

Mensaje por Spanish Jhonny » Lun 25 Mar, 2019 09:08

Muchas gracias roisiano
Ya está pinchada
Un saludo

Responder