The Train (John Frankenheimer, 1964) HD 1080p | 720p Dual SE

Publica y encuentra enlaces p2p de filmes hasta 1980 en esta sección.
Avatar de Usuario
duby
Mensajes: 1448
Registrado: Mié 04 Feb, 2004 01:00

Re: The Train (John Frankenheimer, 1964) HD 720p Dual SE

Mensaje por duby » Dom 16 Mar, 2014 12:46

Completada. Sigue fenomenal de fuentes. :yes:

Muchas gracias Dardo.

Avatar de Usuario
fronky
[FrOnkY]
Mensajes: 1962
Registrado: Jue 10 Dic, 2009 16:47
Ubicación: EntreCorchetes

Re: The Train (John Frankenheimer, 1964) HD 720p Dual SE

Mensaje por fronky » Dom 16 Mar, 2014 13:11

Imagen

Avatar de Usuario
Dardo
Arrow Thrower Clown
Mensajes: 16670
Registrado: Dom 19 Oct, 2003 02:00
Ubicación: Entre Encinas y Dolomías

Re: The Train (John Frankenheimer, 1964) HD 720p Dual SE

Mensaje por Dardo » Dom 16 Mar, 2014 14:25

¿Twilight time?

Esperemos que no la caguen como suele ser habitual :roll:

Avatar de Usuario
fronky
[FrOnkY]
Mensajes: 1962
Registrado: Jue 10 Dic, 2009 16:47
Ubicación: EntreCorchetes

Re: The Train (John Frankenheimer, 1964) HD 720p Dual SE

Mensaje por fronky » Dom 16 Mar, 2014 16:12

saherao
Imagen

Avatar de Usuario
bzoler
Mensajes: 284
Registrado: Lun 20 Ene, 2003 01:00

Re: The Train (John Frankenheimer, 1964) HD 720p Dual SE

Mensaje por bzoler » Lun 17 Mar, 2014 07:53

thanks a lot :D

Avatar de Usuario
Lola dietrichson
Et in Arcadia ego
Mensajes: 17
Registrado: Dom 09 Feb, 2014 14:30

Re: The Train (John Frankenheimer, 1964) HD 720p Dual SE

Mensaje por Lola dietrichson » Lun 17 Mar, 2014 09:00

Dardito lo ha vuelto a hacer. Viva Darditooooooooooooooooooooooooooooo

Avatar de Usuario
birdmanradio
Mensajes: 936
Registrado: Vie 18 May, 2007 11:26

Re: El tren (John Frankenheimer, 1964) DVDRip Dual SE

Mensaje por birdmanradio » Vie 04 Jul, 2014 12:48

¿Que tal la edición bluray? ¿pensáis sacarla?

Avatar de Usuario
Dardo
Arrow Thrower Clown
Mensajes: 16670
Registrado: Dom 19 Oct, 2003 02:00
Ubicación: Entre Encinas y Dolomías

Re: El tren (John Frankenheimer, 1964) DVDRip Dual SE

Mensaje por Dardo » Vie 04 Jul, 2014 14:24

birdmanradio escribió:¿Que tal la edición bluray? ¿pensáis sacarla?
A ver si saco alguna captura y tal con respecto al HDTV que compartí y comentamos el tema.


Avatar de Usuario
Dardo
Arrow Thrower Clown
Mensajes: 16670
Registrado: Dom 19 Oct, 2003 02:00
Ubicación: Entre Encinas y Dolomías

Re: The Train (John Frankenheimer, 1964) HD 720p Dual SE

Mensaje por Dardo » Vie 04 Jul, 2014 14:29

Son más fiables otras capturas que las de bluray.com o dvdbeaver, que ya les he pillado en algún renuncio...y como veo que ya hay ripeos cuando llegue a casa echaré un ojo y os cuento.

Avatar de Usuario
fronky
[FrOnkY]
Mensajes: 1962
Registrado: Jue 10 Dic, 2009 16:47
Ubicación: EntreCorchetes

Re: The Train (John Frankenheimer, 1964) HD 720p Dual SE

Mensaje por fronky » Vie 04 Jul, 2014 14:32

uy... k negloidez má frohoz

(kurpa d Toshy... zigulamentep)
Imagen

Avatar de Usuario
Dardo
Arrow Thrower Clown
Mensajes: 16670
Registrado: Dom 19 Oct, 2003 02:00
Ubicación: Entre Encinas y Dolomías

Re: The Train (John Frankenheimer, 1964) HD 720p Dual SE

Mensaje por Dardo » Sab 05 Jul, 2014 10:16

Bluray (subida por toshiro de bluray.com a 720p) vs HDTV 720p Dardy

Imagen

Imagen
Edición limitada y lo que quieras pero vaya, vaya, qué forma de sacar los duros al personal sin aportar nada...

Si tomamos un ripeo de la scene vs HDTV Dardy...
Imagen

Imagen
Asi que no muevo ni medio garfio por este Bluray, que no es otra cosa que una copia de mi HDTV :mrgreen:

Avatar de Usuario
toshiro
Mensajes: 916
Registrado: Mar 19 Oct, 2010 00:41
Contactar:

Re: The Train (John Frankenheimer, 1964) HD 720p Dual SE

Mensaje por toshiro » Sab 05 Jul, 2014 12:32

También en el extranjero plagiando trabajos, si es que somos unos piratones. :mrgreen:

Avatar de Usuario
fronky
[FrOnkY]
Mensajes: 1962
Registrado: Jue 10 Dic, 2009 16:47
Ubicación: EntreCorchetes

Re: The Train (John Frankenheimer, 1964) HD 720p Dual SE

Mensaje por fronky » Sab 05 Jul, 2014 12:54

El TayTo ese es del club "deblock=1:-3:-3 pa tó" junto con los EbP, DON, CtrlHD y demás. Vamos, cebadores convencidos (disho dotlo modop, "kuanto má engordo innecesariamente el ripipíp -er dobre máomeno- forsando ar x264, má mehol").

Infins...
Imagen

otriades
Mensajes: 39
Registrado: Sab 13 Feb, 2010 11:43

Re: The Train (John Frankenheimer, 1964) HD 720p Dual SE

Mensaje por otriades » Mar 18 Nov, 2014 18:25

Muchas gracias!

Avatar de Usuario
Forrest Gump
Mensajes: 1558
Registrado: Vie 18 May, 2007 18:06
Ubicación: Zihuatanejo

Re: The Train (John Frankenheimer, 1964) HD 720p Dual SE

Mensaje por Forrest Gump » Sab 16 May, 2015 21:22

http://www.blu-ray.com/movies/The-Train-Blu-ray/125038/
http://www.dvdbeaver.com/film4/blu-ray_ ... lu-ray.htm

Aunque dudo que este nuevo Blu Arrow supere al viejo conocido HDTV dardense. :wacky:
Made it, Ma, top of the world!

Avatar de Usuario
Jacob
Exprópiese
Mensajes: 9781
Registrado: Jue 01 Jul, 2004 02:00
Ubicación: Where no one has gone before!

Re: The Train (John Frankenheimer, 1964) HD 720p Dual SE

Mensaje por Jacob » Sab 29 Ago, 2015 15:07

Polonia se acerca a la solución del enigma del tren nazi cargado de oro

Las autoridades polacas han afirmado este sábado que están casi seguras de haber encontrado un tren nazi enterrado que, según los rumores, se perdió cerca del final de la Segunda Guerra Mundial cargado con armas y joyas. (...)
:o

Avatar de Usuario
baldomp
Mensajes: 384
Registrado: Mar 15 Ago, 2017 12:55

The Train (John Frankenheimer, 1964) HD 1080p Dual SE

Mensaje por baldomp » Sab 31 Oct, 2020 10:02




Desde luego, el 720 dardiano no tiene un "pero". "Pero" :mrgreen: ... puesto que Twiligth nos lo pone "a huev..." con su "limited" (dicen que a 3.000 copias -si, compañero, ya sé que tienes una :lol:... pero todos los mortales no (:-) -), y que los tiempos internauticos permiten más alegrias en los "braulios", aquí está el 1080.

The Train.El Tren (1964)

Imagen
Imagen
Datos
  • Título original: The Train
  • Año: 1964
  • Duración: 133 min; 142 min (theatrical release) (1964)
  • País: USA
  • Director: John Frankenheimer
  • Guión: Franklin Coen, Frank Davis (Libro: Rose Valland)
  • Música: Maurice Jarre
  • Reparto:
    • Burt Lancaster
    • Paul Scofield
    • Jeanne Moreau
    • Michel Simon
    • Howard Vernon
    • Suzzane Flon
  • Productora: Coproducción Estados Unidos-Francia-Italia; United Artists
  • datos técnicos:
    • Formato: 35mm
    • Optica: Spherical
    • Color: Blanco y Negro
    • Audio Mono (Westrex Recording System)
    • AR: 1.66:1

    Sinopsis.
    El Coronel Franz Von Waldheim se encuentra destacado en París con una misión muy concreta: hacerse con las modernas pinturas francesas, las mismas calificadas de "degeneradas" por los nazis, y cargarlas en un tren con destino a Alemania para el Tercer Reich. Eso sí, ha de tener mucho cuidado de no dañar la carga y, además, tiene de tiempo límite lo que tarden los aliados en reconquistar la ciudad, es decir, poco margen ya que cada vez están más cerca. (FILMAFFINITY)

    Poco que decir. Un absoluta obra maestra. Una historia alrededor de los hechos, reales, narrados por Rose Valland. Una mujer valiente, una historiadora que devino en miembro activo de la resistencia que convirtió el sentido de su vida en la conservación del inmenso patrimonio cultural intentando evitar que acabase en las manos de los Nazis.

    Imagen
    Spoiler: mostrar
    Imagen

    Hoja de inventario de la «M-Aktion» (el saqueo, vamos...)
    La película es atractiva, las motivaciones de los protagonistas son tangibles gracias al trabajo de los actores. El guión (nominado al oscar) no flojea en ningún momento, La fotografía (un espectacular B/N) apoya la acción. Burt Lancaster... y además... ¡ferrocarriles a vapor!. Vamos... :plas:


    La fuente.
    ISO Bluray "Limited edition" de "Twilight Times"
    Vídeo:Del Bluray. Cropeo habitual y cálculo Slowest buscando la máxima preservación de detalle.

    Audio:
    • Pista 1: AAC de PCM original [Inglés]
    • Pista 2: Doblaje castellano. Sonido típico de doblaje de los 60, con ese ligero "toque metalizado" propio de las grabaciones de la época. Siempre tomo de muestra el pasaje de la frase "díle a Jacques que el queso está en el tren " que siempre hace un "raro robótico" e indefectiblemente me suena a que todas las fuentes (tal vez el master mismo) suenan así (un doblaje del 65, no olvidemos). El regalo es escuchar al siempre estupendo (DEP) Arseni Corsellas.
    • Pista 3: Comentarios de John Frankenheimer (AAC) para avezados en la lengua de Shakespeare (sorry: no subtitles on the BR :| )
    • Pista 4: AAC. La pista con 'Score' y efectos incluída en esta edición
    Subtítulos:
  • Inglés: "Para sordos" OCR del Bluray. Opensubtitles me ha resuelto la faena.
  • Castellano: De nuevo opensubtitles. Ligeramente tocaítos de sincro.
  • Castellano (forzados): Los que en su día adjuntó Dardo. Un tanto reajustados, eliminación de un par innecesario (se traducía pero estaba doblado) y alguna retraducción ("¡Heil Hitler!" traducido como "Si, Coronel...")



    Imagen
    Spoiler: mostrar

    Imagen


    Imagen

    En el "set". A la izquierda, con Moreau, la mismísima Rose Valland

    Imagen




    Stream

    Código: Seleccionar todo

    Format                                   : Matroska
    Format version                           : Version 4
    File size                                : 10.8 GiB
    Duration                                 : 2 h 13 min
    Overall bit rate                         : 11.6 Mb/s
    Writing application                      : mkvmerge v34.0.0 ('Sight and Seen') 64-bit
    Writing library                          : libebml v1.3.7 + libmatroska v1.5.0
    
    Video
    ID                                       : 1
    Format                                   : AVC
    Format/Info                              : Advanced Video Codec
    Format profile                           : Main@L4.1
    Format settings                          : CABAC / 4 Ref Frames
    Format settings, CABAC                   : Yes
    Format settings, Reference frames        : 4 frames
    Codec ID                                 : V_MPEG4/ISO/AVC
    Duration                                 : 2 h 13 min
    Bit rate                                 : 10.9 Mb/s
    Width                                    : 1 792 pixels
    Height                                   : 1 080 pixels
    Display aspect ratio                     : 5:3
    Frame rate mode                          : Constant
    Frame rate                               : 23.976 (24000/1001) FPS
    Color space                              : YUV
    Chroma subsampling                       : 4:2:0
    Bit depth                                : 8 bits
    Scan type                                : Progressive
    Bits/(Pixel*Frame)                       : 0.235
    Stream size                              : 10.1 GiB (94%)
    Title                                    : The train (1964). bay baldomp
    Writing library                          : x264 core 157 r2935 545de2f
    Default                                  : Yes
    Forced                                   : Yes
    Color range                              : Limited
    Color primaries                          : BT.709
    Transfer characteristics                 : BT.709
    Matrix coefficients                      : BT.709
    
    Audio #1
    ID                                       : 2
    Format                                   : AC-3
    Format/Info                              : Audio Coding 3
    Commercial name                          : Dolby Digital
    Codec ID                                 : A_AC3
    Duration                                 : 2 h 13 min
    Bit rate mode                            : Constant
    Bit rate                                 : 192 kb/s
    Channel(s)                               : 2 channels
    Channel layout                           : L R
    Sampling rate                            : 48.0 kHz
    Frame rate                               : 31.250 FPS (1536 SPF)
    Compression mode                         : Lossy
    Stream size                              : 183 MiB (2%)
    Title                                    : Spanish
    Language                                 : Spanish
    Service kind                             : Complete Main
    Default                                  : Yes
    Forced                                   : Yes
    
    Audio #2
    ID                                       : 3
    Format                                   : AAC LC
    Format/Info                              : Advanced Audio Codec Low Complexity
    Codec ID                                 : A_AAC-2
    Duration                                 : 2 h 13 min
    Bit rate                                 : 198 kb/s
    Channel(s)                               : 1 channel
    Channel layout                           : C
    Sampling rate                            : 48.0 kHz
    Frame rate                               : 46.875 FPS (1024 SPF)
    Compression mode                         : Lossy
    Stream size                              : 189 MiB (2%)
    Title                                    : English
    Language                                 : English
    Default                                  : No
    Forced                                   : No
    
    Audio #3
    ID                                       : 4
    Format                                   : AAC LC
    Format/Info                              : Advanced Audio Codec Low Complexity
    Codec ID                                 : A_AAC-2
    Duration                                 : 2 h 13 min
    Bit rate                                 : 224 kb/s
    Channel(s)                               : 2 channels
    Channel layout                           : L R
    Sampling rate                            : 48.0 kHz
    Frame rate                               : 46.875 FPS (1024 SPF)
    Compression mode                         : Lossy
    Stream size                              : 213 MiB (2%)
    Title                                    : Comentarios de John Frankenheimer
    Language                                 : English
    Default                                  : No
    Forced                                   : No
    
    Audio #4
    ID                                       : 5
    Format                                   : AAC LC
    Format/Info                              : Advanced Audio Codec Low Complexity
    Codec ID                                 : A_AAC-2
    Duration                                 : 2 h 13 min
    Bit rate                                 : 61.4 kb/s
    Channel(s)                               : 2 channels
    Channel layout                           : L R
    Sampling rate                            : 48.0 kHz
    Frame rate                               : 46.875 FPS (1024 SPF)
    Compression mode                         : Lossy
    Stream size                              : 58.5 MiB (1%)
    Title                                    : Music & effects (isolated)
    Language                                 : English
    Default                                  : No
    Forced                                   : No
    
    Text #1
    ID                                       : 6
    Format                                   : UTF-8
    Codec ID                                 : S_TEXT/UTF8
    Codec ID/Info                            : UTF-8 Plain Text
    Duration                                 : 2 h 1 min
    Bit rate                                 : 2 b/s
    Count of elements                        : 70
    Stream size                              : 1.99 KiB (0%)
    Title                                    : Castellano (forzados)
    Language                                 : Spanish
    Default                                  : Yes
    Forced                                   : Yes
    
    Text #2
    ID                                       : 7
    Format                                   : UTF-8
    Codec ID                                 : S_TEXT/UTF8
    Codec ID/Info                            : UTF-8 Plain Text
    Duration                                 : 2 h 10 min
    Bit rate                                 : 29 b/s
    Count of elements                        : 766
    Stream size                              : 28.3 KiB (0%)
    Title                                    : Castellano
    Language                                 : Spanish
    Default                                  : No
    Forced                                   : No
    
    Text #3
    ID                                       : 8
    Format                                   : UTF-8
    Codec ID                                 : S_TEXT/UTF8
    Codec ID/Info                            : UTF-8 Plain Text
    Duration                                 : 2 h 9 min
    Bit rate                                 : 33 b/s
    Count of elements                        : 977
    Stream size                              : 31.8 KiB (0%)
    Title                                    : English
    Language                                 : English
    Default                                  : No
    Forced                                   : No
    
    
    
    Capturas.
    Imagen

    Imagen

    Imagen

    Imagen

    Imagen

    Imagen

    El Enlace.

    ed2k linkThe train.El tren (John Frankenheimer 1964) BDrip 1080p Dual(ENG-SPA) Subs(ENG SPA) ed2k link stats



    Gracias.
    De nuevo, muchas gracias a quienes comparten, difunden y posibilitan que el CINE (así, en mayúsculas) llegue a todos. Preservemos el ARTE.

    Imagen



torresmostoles
Pasion por los clasicos!!
Mensajes: 170
Registrado: Dom 25 Mar, 2018 18:55
Ubicación: madrid sur

Re: The Train (John Frankenheimer, 1964) HD 720p Dual SE

Mensaje por torresmostoles » Sab 31 Oct, 2020 10:51

Desdeluego otro sorpresón y de altisima calidad estaba esperando ya el 1080p tenia ya el de dardo pero siempre se aceptan mejoras y nuevos montajes :lol: :lol: :lol: en cuanto al doblaje pues lo mejor de la época insustituible de todas formas no hay redoblajes sobre esta obra maestra ni falta que le hace :mrgreen: :mrgreen: :mrgreen: gracias de nuevo por este trabajazo mister BALDOMP

ostrata
Mensajes: 2252
Registrado: Mié 24 Mar, 2010 17:29

Re: The Train (John Frankenheimer, 1964) HD 1080p | 720p Dual SE

Mensaje por ostrata » Sab 31 Oct, 2020 11:29

Me lo pido, gracias. :)

Saludos.

Responder