Página 1 de 3

Valdez Is Coming (Edwin Sherin, 1971) HD 720p Dual SE

Publicado: Dom 23 Jun, 2013 17:02
por Dardo
Valdez Is Coming
Que viene Valdez
(Edwin Sherin, 1971)



IMDB
Año de producción: 1971
País: Imagen
Dirección: Edwin Sherin
Guión: Roland Kibbee, David Rayfiel (Novela: Elmore Leonard)
Intérpretes: Burt Lancaster, Susan Clark, Frank Silvera,
Jon Cypher, Richard Jordan, Barton Heyman,
Hector Elizondo, Phil Brown, Ralph Brown
Música: Charles Gross
Fotografía: Gábor Pogány
Duración: 87 min.
Género: Western

Sinopsis: ¡Valdez is coming!...


Comentario: Rodada en el desierto de tabernas (Almería) Valdez is coming supuso el primer contacto con el cine de Ed Sherin, reputado director teatral de Broadway. Burt Lancaster y Susan Clark representan dos vértices de una historia de venganza con un guión sólido y una interpretaciones notable, con ninguna concesión a nada que no sea la propia historia y con un final acorde a un western que hará disfrutar a los amantes del género.

Imagen
Datos del Ripeo
@@ Vídeo: Ripeo 720p realizado a partir del Bluray "remastered" editado en Alemania en recientes fechas. Las ediciones en DVD que disponíamos habían sido editadas con un AR de 1.66 en 4/3 con zoom a la antigua usanza, mientras esta edición en Bluray se ha ido al 1.85. El recorte de la edición en DVD se notaba en muchas escenas que era una chapuza, y en las panorámicas entorpecía la buena fotografía de la película. Os dejo una comparativa con la edición PAL que en este caso es mejor que la NTSC como ya comenté en otro hilo del foro con el ripeo 720p que comparto:
Imagen

Imagen


@@ Audios: La cadena VO es el AC3 tal cual venía en el Bluray. He eliminado la cadena en alemán, y he sincronizado el doblaje clásico de 1972 ya que disponía del mismo. Posteriormente en 1988 se realizó un redoblaje para la edición en vídeo. El doblaje clásico cuenta con Arsenio Corsellas para Burt Lancaster, Elsa Fábregas para para Susan Clark y el recientemente fallecido Constantino Romero para Jon Cypher además de otros grandes del doblaje, por lo que entendía interesante ofrecer este ripeo 720p con el doblaje clásico.

@@ Subtítulos: Subtítulos en Español de la edición editada en España sincronizados para este ripeo que he hecho y por supuesto los ingleses.

Datos Técnicos

Código: Seleccionar todo

General
Complete name                            : Valdez is coming [Que viene Valdez, 1972] BDRip 720p [Eng & Spa-dobly 1972] Subs [DivXClásico.com].mkv
Format                                   : Matroska
Format version                           : Version 2
File size                                : 4.12 GiB
Duration                                 : 1h 30mn
Overall bit rate                         : 6 504 Kbps
Encoded date                             : UTC 2013-06-23 14:07:44
Writing application                      : mkvmerge v4.0.0 ('The Stars were mine') built on Jun  5 2010 17:44:09
Writing library                          : libebml v1.0.0 + libmatroska v1.0.0

Video
ID                                       : 1
Format                                   : AVC
Format/Info                              : Advanced Video Codec
Format profile                           : High@L4.1
Format settings, CABAC                   : Yes
Format settings, ReFrames                : 9 frames
Codec ID                                 : V_MPEG4/ISO/AVC
Duration                                 : 1h 30mn
Bit rate                                 : 5 991 Kbps
Width                                    : 1 280 pixels
Height                                   : 690 pixels
Display aspect ratio                     : 1.855
Frame rate                               : 23.976 fps
Color space                              : YUV
Chroma subsampling                       : 4:2:0
Bit depth                                : 8 bits
Scan type                                : Progressive
Bits/(Pixel*Frame)                       : 0.283
Stream size                              : 3.79 GiB (92%)
Writing library                          : x264 core 133 r2334 a3ac64b
Encoding settings                        : cabac=1 / ref=9 / deblock=1:-2:-1 / analyse=0x3:0x133 / me=umh / subme=10 / psy=1 / psy_rd=1.00:0.20 / mixed_ref=1 / me_range=24 / chroma_me=1 / trellis=2 / 8x8dct=1 / cqm=0 / deadzone=21,11 / fast_pskip=1 / chroma_qp_offset=-3 / threads=3 / lookahead_threads=1 / sliced_threads=0 / nr=0 / decimate=1 / interlaced=0 / bluray_compat=0 / constrained_intra=0 / bframes=8 / b_pyramid=2 / b_adapt=2 / b_bias=0 / direct=3 / weightb=1 / open_gop=0 / weightp=2 / keyint=250 / keyint_min=23 / scenecut=40 / intra_refresh=0 / rc_lookahead=60 / rc=crf / mbtree=1 / qcomp=0.60 / qpmin=0 / qpmax=69 / qpstep=4 / ip_ratio=1.40 / aq=1:1.00
Language                                 : English
Default                                  : No
Forced                                   : No

Audio #1
ID                                       : 2
Format                                   : AC-3
Format/Info                              : Audio Coding 3
Mode extension                           : CM (complete main)
Codec ID                                 : A_AC3
Duration                                 : 1h 30mn
Bit rate mode                            : Constant
Bit rate                                 : 192 Kbps
Channel(s)                               : 2 channels
Channel positions                        : Front: L R
Sampling rate                            : 48.0 KHz
Bit depth                                : 16 bits
Compression mode                         : Lossy
Stream size                              : 125 MiB (3%)
Language                                 : English
Default                                  : No
Forced                                   : No

Audio #2
ID                                       : 3
Format                                   : AC-3
Format/Info                              : Audio Coding 3
Mode extension                           : CM (complete main)
Codec ID                                 : A_AC3
Duration                                 : 1h 30mn
Bit rate mode                            : Constant
Bit rate                                 : 192 Kbps
Channel(s)                               : 2 channels
Channel positions                        : Front: L R
Sampling rate                            : 48.0 KHz
Bit depth                                : 16 bits
Compression mode                         : Lossy
Delay relative to video                  : 6s 200ms
Stream size                              : 125 MiB (3%)
Language                                 : Spanish
Default                                  : No
Forced                                   : No

Text #1
ID                                       : 4
Format                                   : UTF-8
Codec ID                                 : S_TEXT/UTF8
Codec ID/Info                            : UTF-8 Plain Text
Language                                 : Spanish
Default                                  : Yes
Forced                                   : No

Text #2
ID                                       : 5
Format                                   : UTF-8
Codec ID                                 : S_TEXT/UTF8
Codec ID/Info                            : UTF-8 Plain Text
Language                                 : English
Default                                  : No
Forced                                   : No
Capturas

Imagen

Imagen

Imagen

Imagen

Imagen

Enlaces
Valdez is coming (Que viene Valdez, 1972) BDRip 720p (Eng & Spa-dobly 1972) Subs (DivXClásico.com).mkv
@@ Subtítulos en Español y en Inglés dentro del mkv.
--------------------------
Enlaces Relacionados en DXC:
DVDRip VOSE + AE

Re: Valdez Is Coming (Edwin Sherin, 1971) HD 720p Dual SE

Publicado: Dom 23 Jun, 2013 17:26
por loga
Espectacular mejora.Muchas gracias Dardo-Burt :mrgreen: :wacky: .

Re: Valdez Is Coming (Edwin Sherin, 1971) HD 720p Dual SE

Publicado: Dom 23 Jun, 2013 17:26
por Shadow10
Muchas gracias, Dardo.

Saludos.

Re: Valdez Is Coming (Edwin Sherin, 1971) HD 720p Dual SE

Publicado: Dom 23 Jun, 2013 18:06
por plateiro
Dardo is coming!
Come on...
Thank you so much!
:wink:

Re: Valdez Is Coming (Edwin Sherin, 1971) HD 720p Dual SE

Publicado: Dom 23 Jun, 2013 18:27
por birdmanradio
Gracias Dardo por este gran ripeo :D

Re: Valdez Is Coming (Edwin Sherin, 1971) HD 720p Dual SE

Publicado: Dom 23 Jun, 2013 18:55
por piakito bishop
Bueno, realmente espectacular.
Muchas gracias Dardo.

:plas:

Re: Valdez Is Coming (Edwin Sherin, 1971) HD 720p Dual SE

Publicado: Dom 23 Jun, 2013 19:11
por janca
Sigues mejorando copias de películas de Burt Lancaster. Gracias Dardo

Re: Valdez Is Coming (Edwin Sherin, 1971) HD 720p Dual SE

Publicado: Dom 23 Jun, 2013 23:17
por LuisNieto
Luce fenomenal la película, por supuesto que pincho.

Gracias Dardo :plas: :plas:

P.D.: Bonitos ojos la pelirroja!!

Re: Valdez Is Coming (Edwin Sherin, 1971) HD 720p Dual SE

Publicado: Dom 23 Jun, 2013 23:38
por jmog
Muchas gracias Dardo, pinchada queda, fenomenal.

Re: Valdez Is Coming (Edwin Sherin, 1971) HD 720p Dual SE

Publicado: Dom 23 Jun, 2013 23:54
por batallans
Bellezón de mujer. Y grandioso western.

Imagen

Muchísimas gracias por tu esfuerzo, dardo.

Re: Valdez Is Coming (Edwin Sherin, 1971) HD 720p Dual SE

Publicado: Lun 24 Jun, 2013 03:46
por basiccaos1
Oñe!Como luse esto,nop?
Grasias !

Re: Valdez Is Coming (Edwin Sherin, 1971) HD 720p Dual SE

Publicado: Lun 24 Jun, 2013 04:25
por joramor
Muchas gracias, Dardo. Salu2.

Re: Valdez Is Coming (Edwin Sherin, 1971) HD 720p Dual SE

Publicado: Lun 24 Jun, 2013 09:51
por Spanish Jhonny
Muchas gracias Dardo

Re: Valdez Is Coming (Edwin Sherin, 1971) HD 720p Dual SE

Publicado: Lun 24 Jun, 2013 19:17
por iberosky
Muchas gracias dardo, por el trabajo.

Re: Valdez Is Coming (Edwin Sherin, 1971) HD 720p Dual SE

Publicado: Lun 24 Jun, 2013 23:23
por Antígono
Que venga, que venga y si trae a la pelirroja mejor :yes: . Gracias Dardo.

Re: Valdez Is Coming (Edwin Sherin, 1971) HD 720p Dual SE

Publicado: Mar 25 Jun, 2013 06:14
por Forrest Gump
Western. Lancaster. Notable upgrade. Bajando. Mil gracias. Dardo. Saludos. :mrgreen: :wink:

Re: Valdez Is Coming (Edwin Sherin, 1971) HD 720p Dual SE

Publicado: Jue 27 Jun, 2013 12:55
por adesus
Un western a la vieja usanza,aunque esté rodado en Almeria,no tiene nada que ver con los spagettis-western.Una gran mejora con la que ya tengo,desde luego no se como te lo montas Dardo,pero muy agradecido,por todo.¿Unos bellos ojos,Luis?,¿estás perdiendo facultades o que?,debe de ser cosa de la edad,que no perdona.Que es la gran Susan Clark,una ACTRIZ,con todas las letras y si no,sólo hay que ver El valle del fugitivo,o La noche se mueve,excepcionales películas y siempre sobresalía ella.Un abrazo a mi amigazo Luis y perdona la broma y para el Maestro,un aplauso gordote. :plas: :plas: :plas: :plas: :plas: :plas:

Re: Valdez Is Coming (Edwin Sherin, 1971) HD 720p Dual SE

Publicado: Jue 27 Jun, 2013 15:56
por jomime
¿ete eh el der café?????? :wacky: :wacky: :wacky: :wacky:

Re: Valdez Is Coming (Edwin Sherin, 1971) HD 720p Dual SE

Publicado: Dom 30 Jun, 2013 19:48
por javisambo
Hubiese jurado que era el tal "Winter"... el que iba a venir... hasta que me he acordado que no te va el rollito de trono y cetro :mrgreen: Menuda lapsus! Debe ser la medicación :wacky:

Muchas gracias Dardo. Completita y en reparto

Re: Valdez Is Coming (Edwin Sherin, 1971) HD 720p Dual SE

Publicado: Sab 12 Jul, 2014 08:37
por Dardo
Estoy repartiendo megas para 6-8 de la scene, asi que si alguno se quiere apuntar es el momento.