Pillow Talk (Michael Gordon, 1959) HD 720p Dual SE

Publica y encuentra enlaces p2p de filmes hasta 1980 en esta sección.
Responder
Avatar de Usuario
DMMD
Mensajes: 1810
Registrado: Lun 27 Feb, 2012 14:16

Pillow Talk (Michael Gordon, 1959) HD 720p Dual SE

Mensaje por DMMD » Vie 11 Ene, 2013 15:31

Imagen

Imagen



Confidencias de medianoche




TÍTULO ORIGINAL Pillow Talk
AÑO 1959
DURACIÓN 105 min.
PAÍS Imagen
DIRECTOR Michael Gordon
GUIÓN Stanley Shapiro, Russell Rouse, Clarence Green, Maurice Richlin
MÚSICA Frank DeVol (AKA Frank De Vol)
FOTOGRAFÍA Arthur E. Arling
REPARTO Rock Hudson, Doris Day, Tony Randall, Thelma Ritter, Nick Adams, Allen Jenkins, Lee Patrick, Marcel Dalio, Mary McCarty, Julia Meade
PRODUCTORA Universal Pictures
PREMIOS 1959: Oscar: Mejor guión original. 5 nominaciones
GÉNERO Romance, Comedia
SINOPSIS
Allen, compositor musical, y Jean, decoradora de interiores, se ven obligados a compartir temporalmente la misma línea de teléfono, lo que da lugar a continuas discusiones entre ellos. Los dos trabajan para el mismo jefe, Jonathan, pero no se conocen personalmente. Jonathan pretende a Jean y quiere casarse con ella. Sin embargo, en una fiesta, Allen reconoce por la voz a Jean y entabla conversación con ella ocultando su identidad. (FILMAFFINITY)


CRÍTICAS
Primera y una de las más famosas comedias románticas realizadas por la pareja Rock Hudson y Doris Day para la productora Universal. El tono amable propio de los felices años 50 y la química entre su pareja protagonista hizo que consiguiera un gran éxito de público, siendo la cuarta película más taquillera del año 1959. (FILMAFFINITY)

"Simpática comedia romántica dirigida con bastante oficio" (Fernando Morales: Diario El País)



Código: Seleccionar todo

C:1959-Confidencias de medianoche...(Pillow Talk)..by...DMMD(HDCL).mkv
   General
      Unique ID : 182690994910305012125718532393773471414 (0x89710179EE442942919E55E4E6CE96B6)
      Complete name : C:1959-Confidencias de medianoche...(Pillow Talk)..by...DMMD(HDCL).mkv
      Format : Matroska
      File size : 5.55 GiB
      Duration : 1h 42mn
      Overall bit rate : 7 759 Kbps
      Movie name : 1959-Confidencias de medianoche...(Pillow Talk)..by...DMMD(HDCL)
      Encoded date : UTC 2012-05-29 19:28:01
      Writing application : mkvmerge v5.6.0 ('Kenya Kane') built on May 27 2012 16:44:04
      Writing library : libebml v1.2.3 + libmatroska v1.3.0
   Video #1
      ID : 1
      Format : AVC
      Format/Info : Advanced Video Codec
      Format profile : High@L4.1
      Format settings, CABAC : Yes
      Format settings, ReFrames : 12 frames
      Codec ID : V_MPEG4/ISO/AVC
      Duration : 1h 42mn
      Bit rate : 7 220 Kbps
      Width : 1 280 pixels
      Height : 544 pixels
      Display aspect ratio : 2.35:1
      Frame rate : 23.976 fps
      Color space : YUV
      Chroma subsampling : 4:2:0
      Bit depth : 8 bits
      Scan type : Progressive
      Bits/(Pixel*Frame) : 0.432
      Stream size : 5.17 GiB (93%)
      Writing library : x264 core 122 r2184 5c85e0a
      Language : English
   Audio #2
      ID : 2
      Format : AC-3
      Format/Info : Audio Coding 3
      Mode extension : CM (complete main)
      Codec ID : A_AC3
      Duration : 1h 42mn
      Bit rate mode : Constant
      Bit rate : 192 Kbps
      Channel(s) : 2 channels
      Channel positions : Front: L R
      Sampling rate : 48.0 KHz
      Bit depth : 16 bits
      Compression mode : Lossy
      Stream size : 141 MiB (2%)
      Language : Spanish
   Audio #3
      ID : 3
      Format : AC-3
      Format/Info : Audio Coding 3
      Mode extension : CM (complete main)
      Codec ID : A_AC3
      Duration : 1h 42mn
      Bit rate mode : Constant
      Bit rate : 192 Kbps
      Channel(s) : 2 channels
      Channel positions : Front: L R
      Sampling rate : 48.0 KHz
      Bit depth : 16 bits
      Compression mode : Lossy
      Stream size : 141 MiB (2%)
      Language : English
   Text #4
      ID : 4
      Format : UTF-8
      Codec ID : S_TEXT/UTF8
      Codec ID/Info : UTF-8 Plain Text
      Title : Forzados
      Language : Spanish
   Text #5
      ID : 5
      Format : UTF-8
      Codec ID : S_TEXT/UTF8
      Codec ID/Info : UTF-8 Plain Text
      Language : Spanish
   Text #6
      ID : 6
      Format : UTF-8
      Codec ID : S_TEXT/UTF8
      Codec ID/Info : UTF-8 Plain Text
      Language : English


COMPARATIVA


Blu ray - Paramount Pictures

Imagen


BDRip 720p

Imagen



CAPTURAS

Imagen
Imagen
Imagen
Imagen
Imagen
Imagen
Imagen



Vídeo, audio y subtitulos extraídos del Blu-ray








Enlaces de descarga

Imagen



ed2k link1959-Confidencias de medianoche...(Pillow Talk)..by...DMMD(HDCL).mkv ed2k link stats
Última edición por DMMD el Mié 21 Dic, 2016 00:00, editado 2 veces en total.

Avatar de Usuario
janca
Mensajes: 2219
Registrado: Dom 20 Dic, 2009 09:31

Re: Confidencias de medianoche (Michael Gordon, 1959) HD 720p Dual SE

Mensaje por janca » Vie 11 Ene, 2013 15:51

Gracias DMMD

Avatar de Usuario
adesus
Mensajes: 290
Registrado: Lun 14 May, 2012 16:17

Re: Confidencias de medianoche (Michael Gordon, 1959) HD 720p Dual SE

Mensaje por adesus » Mar 15 Ene, 2013 18:18

:D :D Me da igual darte las gracias aquí o en HD Clásicos,DMMD y aun te estaría más agradecido,es un decir si encima me pones, :lol: Un pijama para dos y :lol: No me mandes flores,incluso si hay alguna otra de este tema,tampoco le haría ascos,es una broma,haz lo que desees y cuando lo desees,por mi sabes que siempre,siempre estará bien,un abrazo amigo y un saludete a todo el mundo. :plas: :plas: :plas: :plas:
CUANDO BEBO AGUA,BEBO AGUA Y CUANDO BEBO WHISKY,BEBO WHISKY

Avatar de Usuario
Spanish Jhonny
Mensajes: 3112
Registrado: Mar 18 Sep, 2012 16:01

Re: Confidencias de medianoche (Michael Gordon, 1959) HD 720p Dual SE

Mensaje por Spanish Jhonny » Mar 03 May, 2016 11:40

Llego algo tarde aunque con fuentes completas de sobra ;)
Muchas gracias DMMD

oskib
Mensajes: 246
Registrado: Mar 29 Dic, 2009 13:55

Re: Confidencias de medianoche (Michael Gordon, 1959) HD 720p Dual SE

Mensaje por oskib » Mar 03 May, 2016 21:33

Otro atrasado acá!! Divertidísimos "Problemas de Alcoba" (título en Argentina) para no dejar de rever cada tanto.
Muchas gracias, DMMD.

joramor
Mensajes: 1706
Registrado: Vie 05 Nov, 2010 19:55

Re: Confidencias de medianoche (Michael Gordon, 1959) HD 720p Dual SE

Mensaje por joramor » Jue 05 May, 2016 10:52

Muchas gracias DMMD. Salu2.

Avatar de Usuario
elmajete
Mensajes: 1021
Registrado: Vie 18 May, 2007 22:05

Re: Confidencias de medianoche (Michael Gordon, 1959) HD 720p Dual SE

Mensaje por elmajete » Jue 05 May, 2016 12:32

Muchas gracias por este aporte DMMD, una divertida comedia :plas: :plas: :plas:

Avatar de Usuario
Forrest Gump
Mensajes: 1603
Registrado: Vie 18 May, 2007 18:06
Ubicación: Zihuatanejo

Re: Pillow Talk (Michael Gordon, 1959) HD 720p Dual SE

Mensaje por Forrest Gump » Dom 31 Ene, 2021 07:48

Este gran aporte se me pasó en su momento. ¿Alguien podría reponerlo, así el rojo se convierte en azul?
Muchísimas gracias, DMMD. :plas:
Made it, Ma, top of the world!

Avatar de Usuario
Spanish Jhonny
Mensajes: 3112
Registrado: Mar 18 Sep, 2012 16:01

Re: Pillow Talk (Michael Gordon, 1959) HD 720p Dual SE

Mensaje por Spanish Jhonny » Dom 31 Ene, 2021 08:43

Corro a reponerla, Forrest :wink: :sonrisa:

Avatar de Usuario
Forrest Gump
Mensajes: 1603
Registrado: Vie 18 May, 2007 18:06
Ubicación: Zihuatanejo

Re: Pillow Talk (Michael Gordon, 1959) HD 720p Dual SE

Mensaje por Forrest Gump » Dom 31 Ene, 2021 08:51

Siempre atento, SJ. Te agradezco, y no hay apuro, tras que demoré 8 años en pinchar. :lol:
Made it, Ma, top of the world!

ostrata
Mensajes: 2316
Registrado: Mié 24 Mar, 2010 17:29

Re: Pillow Talk (Michael Gordon, 1959) HD 720p Dual SE

Mensaje por ostrata » Dom 31 Ene, 2021 11:47

Aprovecho yo también, gracias. :)

Saludos.

Avatar de Usuario
hector Glauco
Mensajes: 580
Registrado: Lun 10 Ago, 2015 14:13
Ubicación: En el Tarragonés y FDL2

Re: Pillow Talk (Michael Gordon, 1959) HD 720p Dual SE

Mensaje por hector Glauco » Dom 31 Ene, 2021 17:38

Approvecho el reflote para mejorar copia. Merci DMMD y SJ.

Responder