Oliver! (Carol Reed, 1968) HD 720p Dual SE

Publica y encuentra enlaces p2p de filmes hasta 1980 en esta sección.
Avatar de Usuario
DMMD

Mensajes: 1470
Registrado: Lun 27 Feb, 2012 14:16

Oliver! (Carol Reed, 1968) HD 720p Dual SE

Mensajepor DMMD » Mié 26 Dic, 2012 15:17

Imagen


Imagen




Oliver!

TÍTULO ORIGINAL Oliver!
AÑO 1968
DURACIÓN 153 min.
PAÍS Imagen
DIRECTOR Carol Reed
GUIÓN Vernon Harris (Novela: Charles Dickens)
MÚSICA Lionel Bart, Johnny Green
FOTOGRAFÍA Oswald Morris
REPARTO Mark Lester, Ron Moody, Shani Wallis, Oliver Reed, Jack Wild, Harry Secombe, Hugh Griffith, Clive Moss, Peggy Mount, Leonard Rossiter,Megs Jenkins, Kenneth Cranham, Sheila White.
PRODUCTORA Columbia Pictures
PREMIOS 1968: 5 Oscars (+1 honorario), incluyendo mejor película, director y bso. 11 nominaciones
1968 : Globo de Oro: Mejor película: Comedia o Musical

GÉNERO Musical, Drama| Infancia Pobreza, Siglo XIX

SINOPSIS
En el siglo XIX, un pobre niño inglés, Oliver Twist (Mark Lester), escapa de un orfanato y llega a Londres en busca de fortuna. Allí es reclutado por un granuja llamado Fagin (Ron Moody), jefe de una banda de jóvenes ladronzuelos que roban a los transeúntes. Adaptación en formato musical de la famosa obra de Dickens. (FILMAFFINITY)


CRÍTICAS
"Uno de los mejores musicales de siempre. Espectaculares bailes exteriores y perfectas escenas interiores. Para la historia: Who will buy this wonderful morning?" (Javier Ocaña: Cinemanía)

"Maravillosa adaptación musical de la popular Oliver Twist, de Charles Dickens, por medio de un alarde de originalidad visual. Un auténtico festín visual para disfrute de todos, un catálogo de sabiduría cinematográfica" (Miguel Ángel Palomo: Diario El País)






Código: Seleccionar todo

General
Unique ID                                : 175164334934239356661628785323994161439 (0x83C76C7D193BD0CF8C4AEFFBBF5AA11F)
Complete name                            : E:\Incoming\1968-Oliver!.HDTV.x264.720p.AC3[DMMD].mkv
Format                                   : Matroska
Format version                           : Version 2
File size                                : 3.36 GiB
Duration                                 : 2 h 19 min
Overall bit rate                         : 3 440 kb/s
Movie name                               : 1968-Oliver!.....HDTV..720p...by...DMMD(HDCL)
Encoded date                             : UTC 2012-12-25 22:06:15
Writing application                      : mkvmerge v5.8.0 ('No Sleep / Pillow') built on Sep  2 2012 15:37:04
Writing library                          : libebml v1.2.3 + libmatroska v1.3.0
Attachments                              : 3.jpg / 2.jpg / 1.jpg

Video
ID                                       : 1
Format                                   : AVC
Format/Info                              : Advanced Video Codec
Format profile                           : High@L4.1
Format settings, CABAC                   : Yes
Format settings, RefFrames               : 8 frames
Codec ID                                 : V_MPEG4/ISO/AVC
Duration                                 : 2 h 19 min
Bit rate                                 : 2 608 kb/s
Width                                    : 1 280 pixels
Height                                   : 544 pixels
Display aspect ratio                     : 2.35:1
Frame rate mode                          : Constant
Frame rate                               : 25.000 FPS
Color space                              : YUV
Chroma subsampling                       : 4:2:0
Bit depth                                : 8 bits
Scan type                                : Progressive
Bits/(Pixel*Frame)                       : 0.150
Stream size                              : 2.48 GiB (74%)
Writing library                          : x264 core 120 r2146 bcd41db
Encoding settings                        : cabac=1 / ref=8 / deblock=1:-1:-1 / analyse=0x3:0x133 / me=umh / subme=10 / psy=1 / psy_rd=1.00:0.00 / mixed_ref=0 / me_range=32 / chroma_me=1 / trellis=2 / 8x8dct=1 / cqm=0 / deadzone=21,11 / fast_pskip=0 / chroma_qp_offset=-2 / threads=6 / sliced_threads=0 / nr=0 / decimate=1 / interlaced=0 / bluray_compat=0 / constrained_intra=0 / bframes=3 / b_pyramid=2 / b_adapt=2 / b_bias=0 / direct=3 / weightb=1 / open_gop=0 / weightp=2 / keyint=350 / keyint_min=25 / scenecut=40 / intra_refresh=0 / rc_lookahead=50 / rc=2pass / mbtree=1 / bitrate=2608 / ratetol=1.0 / qcomp=0.60 / qpmin=10 / qpmax=51 / qpstep=4 / cplxblur=20.0 / qblur=0.5 / ip_ratio=1.40 / aq=1:1.00
Language                                 : English
Default                                  : Yes
Forced                                   : No

Audio #1
ID                                       : 2
Format                                   : AC-3
Format/Info                              : Audio Coding 3
Format settings, Endianness              : Big
Codec ID                                 : A_AC3
Duration                                 : 2 h 19 min
Bit rate mode                            : Constant
Bit rate                                 : 192 kb/s
Channel(s)                               : 2 channels
Channel positions                        : Front: L R
Sampling rate                            : 48.0 kHz
Frame rate                               : 31.250 FPS (1536 SPF)
Bit depth                                : 16 bits
Compression mode                         : Lossy
Delay relative to video                  : 150 ms
Stream size                              : 192 MiB (6%)
Title                                    : Dvd
Language                                 : Spanish
Service kind                             : Complete Main
Default                                  : No
Forced                                   : No

Audio #2
ID                                       : 3
Format                                   : AC-3
Format/Info                              : Audio Coding 3
Format settings, Endianness              : Big
Codec ID                                 : A_AC3
Duration                                 : 2 h 19 min
Bit rate mode                            : Constant
Bit rate                                 : 192 kb/s
Channel(s)                               : 2 channels
Channel positions                        : Front: L R
Sampling rate                            : 48.0 kHz
Frame rate                               : 31.250 FPS (1536 SPF)
Bit depth                                : 16 bits
Compression mode                         : Lossy
Delay relative to video                  : 100 ms
Stream size                              : 192 MiB (6%)
Title                                    : Doblaje original
Language                                 : Spanish
Service kind                             : Complete Main
Default                                  : No
Forced                                   : No

Audio #3
ID                                       : 4
Format                                   : AC-3
Format/Info                              : Audio Coding 3
Format settings, Endianness              : Big
Codec ID                                 : A_AC3
Duration                                 : 2 h 19 min
Bit rate mode                            : Constant
Bit rate                                 : 448 kb/s
Channel(s)                               : 6 channels
Channel positions                        : Front: L C R, Side: L R, LFE
Sampling rate                            : 48.0 kHz
Frame rate                               : 31.250 FPS (1536 SPF)
Bit depth                                : 16 bits
Compression mode                         : Lossy
Stream size                              : 449 MiB (13%)
Language                                 : English
Service kind                             : Complete Main
Default                                  : No
Forced                                   : No

Text #1
ID                                       : 5
Format                                   : UTF-8
Codec ID                                 : S_TEXT/UTF8
Codec ID/Info                            : UTF-8 Plain Text
Title                                    : Completos
Language                                 : Spanish
Default                                  : No
Forced                                   : No

Text #2
ID                                       : 6
Format                                   : UTF-8
Codec ID                                 : S_TEXT/UTF8
Codec ID/Info                            : UTF-8 Plain Text
Title                                    : Forzados
Language                                 : Spanish
Default                                  : Yes
Forced                                   : Yes






-Encode a partir de una emisión Hdtv 1080i.

Hdtv sin mosca, gran mejoría en cuanto a detalle y claridad con diferentes tonalidad respecto al dvd.

Para el audio he incluido por un lado el doblaje original de 1969, que me proporciono golondron_6 y el que traía la edición de dvd el redoblaje de 2000.

Subtitulos completos y forzados para las canciones






CAPTURAS

Imagen
Imagen
Imagen
Imagen
Imagen
Imagen




Enlaces de descarga

Imagen

1968-Oliver!.HDTV.x264.720p.AC3[DMMD].mkv [3.36 Gb] [Info]
Última edición por DMMD el Vie 13 Oct, 2017 14:00, editado 1 vez en total.

Avatar de Usuario
Cirlot
Marxista, por Karl y Groucho
DXC Republican Clown

Mensajes: 3974
Registrado: Jue 05 Ago, 2004 02:00
Ubicación: Level 5

Re: Oliver! (Carol Reed, 1968) HDTV 720p Dual SE

Mensajepor Cirlot » Mié 26 Dic, 2012 15:41

La película es un horror de mucho cuidado, pero es del maestro Carol Reed, y el ripio parece excelente, así que me la traigo pacá. Muchas gracias, D.
Salud, comas, clowns y República


Avatar de Usuario
jomime

Mensajes: 573
Registrado: Vie 02 Mar, 2012 13:27

Re: Oliver! (Carol Reed, 1968) HDTV 720p Dual SE

Mensajepor jomime » Mié 26 Dic, 2012 15:55

Cirlot escribió:La película es un horror de mucho cuidado, me la traigo pacá. Muchas gracias, D.


A eso en mi pueblo se la llama "ser masoca" :mrgreen:

Avatar de Usuario
Cirlot
Marxista, por Karl y Groucho
DXC Republican Clown

Mensajes: 3974
Registrado: Jue 05 Ago, 2004 02:00
Ubicación: Level 5

Re: Oliver! (Carol Reed, 1968) HDTV 720p Dual SE

Mensajepor Cirlot » Mié 26 Dic, 2012 16:20

jomime escribió:
Cirlot escribió:La película es un horror de mucho cuidado, me la traigo pacá. Muchas gracias, D.


A eso en mi pueblo se la llama "ser masoca" :mrgreen:

Podría ser espíritu compilador, pero el masoquismo parece mucho más probable.
Salud, comas, clowns y República


Avatar de Usuario
fronky
[FrOnkY]

Mensajes: 1958
Registrado: Jue 10 Dic, 2009 16:47
Ubicación: EntreCorchetes

Re: Oliver! (Carol Reed, 1968) HDTV 720p Dual SE

Mensajepor fronky » Mié 26 Dic, 2012 16:50

El poder de atracción DMMDyano es muy acusado.


De hecho, un día de éstos tengo previsto hacerme con alguna aportación suya y tó...
Imagen

grusingrusin

Mensajes: 99
Registrado: Mié 01 Ago, 2012 21:30

Re: Oliver! (Carol Reed, 1968) HDTV 720p Dual SE

Mensajepor grusingrusin » Mié 26 Dic, 2012 22:06

La película, en mi modesta opinión, es una joya, pero para eso te tiene que gustar el musical, no solo por las canciones (y aquí no hay duda, son de una grandísima inspiración) sino por cómo están coreografiadas la mayoría de las secuencias y por el ritmo pausado de este tipo de cine. Y las gracias más sinceras por recuperar el doblaje original, masacrado incomprensiblemente en la edición DVD.
Muchísimas gracias

Avatar de Usuario
paizoco

Mensajes: 2061
Registrado: Vie 21 Nov, 2003 01:00
Ubicación: Far West

Re: Oliver! (Carol Reed, 1968) HDTV 720p Dual SE

Mensajepor paizoco » Jue 12 Oct, 2017 22:50

Me apunto ahora, muchas gracias DMMD

Avatar de Usuario
DMMD

Mensajes: 1470
Registrado: Lun 27 Feb, 2012 14:16

Re: Oliver! (Carol Reed, 1968) HD 720p Dual SE

Mensajepor DMMD » Vie 13 Oct, 2017 14:01

Repuestas capturas y demás. :wink:

joramor

Mensajes: 1183
Registrado: Vie 05 Nov, 2010 19:55

Re: Oliver! (Carol Reed, 1968) HD 720p Dual SE

Mensajepor joramor » Vie 13 Oct, 2017 22:12

Muchas gracias DMMD. Salu2.

elmajete

Mensajes: 808
Registrado: Vie 18 May, 2007 22:05

Re: Oliver! (Carol Reed, 1968) HD 720p Dual SE

Mensajepor elmajete » Jue 19 Oct, 2017 14:25

Muchas gracias DMMD :plas: :plas: :plas:


Volver a “Cine Clásico”

¿Quién está conectado?

Usuarios navegando por este Foro: Google [Bot], nadaes, zundertaker y 7 invitados