Vera Cruz (Robert Aldrich, 1954) HD 720p Dual SE

Publica y encuentra enlaces p2p de filmes hasta 1980 en esta sección.
Avatar de Usuario
DMMD
Mensajes: 1889
Registrado: Lun 27 Feb, 2012 14:16

Vera Cruz (Robert Aldrich, 1954) HD 720p Dual SE

Mensaje por DMMD » Dom 23 Dic, 2012 16:04

Nuevo encode 29-12-2021
Imagen


Imagen



Vera Cruz


TÍTULO ORIGINAL Vera Cruz
AÑO 1954
DURACIÓN 94 min.
PAÍS Imagen
DIRECTOR Robert Aldrich
GUIÓN Roland Kibbee & James R. Webb (Historia: Borden Chase)
MÚSICA Hugo Friedhofer
FOTOGRAFÍA Ernest Laszlo
REPARTO Burt Lancaster, Gary Cooper, Denise Darcel, Sara Montiel (AKA Sarita Montiel), César Romero, George Macready, Ernest Borgnine, Jack Elam, Charles Bronson, Jack Lambert
PRODUCTORA MGM / UA
GÉNERO Western | Revolución Mexicana
SINOPSIS

En 1864, con el apoyo de los conservadores mejicanos, Napoleón III de Francia (1852-1871) impone como emperador de Méjico a Maximiliano de Austria, lo que provoca la rebelión de los juaristas. En plena guerra civil, dos mercenarios americanos (Gary Cooper y Burt Lancaster), tratando de sacar partido de la situación, ofrecen sus servicios al mejor postor. Así es como conocen a una hermosa juarista (Sara Montiel) y a una condesa francesa (Denise Darcel). (FILMAFFINITY)


Vídeo:

Primera película en presentarse en Superscope

- Encode a partir de la edición del Bluray Kino Lorber (2K master)

- Dejo este nuevo encode de Kino, que mejora tanto el bluray anterior de la MGM como las ediciones de dvd, no me he equivocado he escrito Kino :biggrin:

- Encuadre mas abierto, el tratamiento de la colorimetría es el mayor acierto de esta edición, aunque sigue manteniendo algunos defectos.

Imagen Imagen Imagen Imagen Imagen Imagen Imagen Imagen Imagen Imagen Imagen Imagen


Código: Seleccionar todo

General
Unique ID                                : 242616276599294090123702805983531784577 (0xB68631F94582E12B82CB1359F1BA5981)
Complete name                            : D:\Incoming\1954-Vera.Cruz.BRx264.720p.AAC.AC3.Kino.(DMMD).mkv
Format                                   : Matroska
Format version                           : Version 4
File size                                : 7.02 GiB
Duration                                 : 1 h 33 min
Overall bit rate                         : 10.8 Mb/s
Movie name                               : 1954-Vera.Cruz.BRx264.720pAAC.AC3.(DMMD)
Encoded date                             : UTC 2021-12-26 19:59:07
Writing application                      : mkvmerge v63.0.0 ('Everything') 64-bit
Writing library                          : libebml v1.4.2 + libmatroska v1.6.4
Attachments                              : 1 / 2 / 3 / 4 / 5 / 6 / 7 / 8 / 9 / 10 / 11

Video
ID                                       : 1
Format                                   : AVC
Format/Info                              : Advanced Video Codec
Format profile                           : High@L4.1
Format settings                          : CABAC / 10 Ref Frames
Format settings, CABAC                   : Yes
Format settings, Reference frames        : 10 frames
Codec ID                                 : V_MPEG4/ISO/AVC
Duration                                 : 1 h 33 min
Bit rate                                 : 10.2 Mb/s
Width                                    : 1 280 pixels
Height                                   : 640 pixels
Display aspect ratio                     : 2.000
Frame rate mode                          : Constant
Frame rate                               : 23.976 (24000/1001) FPS
Color space                              : YUV
Chroma subsampling                       : 4:2:0
Bit depth                                : 8 bits
Scan type                                : Progressive
Bits/(Pixel*Frame)                       : 0.521
Stream size                              : 6.67 GiB (95%)
Title                                    : Kino
Writing library                          : x264 core 152 r2851kMod ba24899
Encoding settings                        : cabac=1 / ref=10 / deblock=1:-3:-3 / analyse=0x3:0x133 / me=umh / subme=11 / psy=1 / fade_compensate=0.00 / psy_rd=1.10:0.00 / mixed_ref=1 / me_range=24 / chroma_me=1 / trellis=2 / 8x8dct=1 / cqm=0 / deadzone=21,11 / fast_pskip=0 / chroma_qp_offset=-2 / threads=6 / lookahead_threads=1 / sliced_threads=0 / nr=0 / decimate=0 / interlaced=0 / bluray_compat=0 / constrained_intra=0 / bframes=11 / b_pyramid=2 / b_adapt=2 / b_bias=0 / direct=3 / weightb=1 / open_gop=0 / weightp=2 / keyint=250 / keyint_min=23 / scenecut=40 / intra_refresh=0 / rc=crf / mbtree=0 / crf=19.0000 / qcomp=0.80 / qpmin=0 / qpmax=69 / qpstep=4 / ip_ratio=1.17 / pb_ratio=1.10 / aq=3:0.70
Language                                 : English
Default                                  : Yes
Forced                                   : No

Audio #1
ID                                       : 2
Format                                   : AAC LC
Format/Info                              : Advanced Audio Codec Low Complexity
Codec ID                                 : A_AAC-2
Duration                                 : 1 h 33 min
Bit rate                                 : 171 kb/s
Channel(s)                               : 2 channels
Channel layout                           : L R
Sampling rate                            : 48.0 kHz
Frame rate                               : 46.875 FPS (1024 SPF)
Compression mode                         : Lossy
Delay relative to video                  : 9 ms
Stream size                              : 115 MiB (2%)
Language                                 : English
Default                                  : Yes
Forced                                   : No

Audio #2
ID                                       : 3
Format                                   : AAC LC
Format/Info                              : Advanced Audio Codec Low Complexity
Codec ID                                 : A_AAC-2
Duration                                 : 1 h 33 min
Bit rate                                 : 144 kb/s
Channel(s)                               : 2 channels
Channel layout                           : L R
Sampling rate                            : 48.0 kHz
Frame rate                               : 46.875 FPS (1024 SPF)
Compression mode                         : Lossy
Delay relative to video                  : 9 ms
Stream size                              : 97.1 MiB (1%)
Title                                    : Doblaje 1955
Language                                 : Spanish
Default                                  : No
Forced                                   : No

Audio #3
ID                                       : 4
Format                                   : AC-3
Format/Info                              : Audio Coding 3
Commercial name                          : Dolby Digital
Codec ID                                 : A_AC3
Duration                                 : 1 h 33 min
Bit rate mode                            : Constant
Bit rate                                 : 192 kb/s
Channel(s)                               : 2 channels
Channel layout                           : L R
Sampling rate                            : 48.0 kHz
Frame rate                               : 31.250 FPS (1536 SPF)
Compression mode                         : Lossy
Stream size                              : 128 MiB (2%)
Title                                    : Doblaje 1973
Language                                 : Spanish
Service kind                             : Complete Main
Default                                  : No
Forced                                   : No

Text #1
ID                                       : 5
Format                                   : UTF-8
Codec ID                                 : S_TEXT/UTF8
Codec ID/Info                            : UTF-8 Plain Text
Duration                                 : 1 h 33 min
Bit rate                                 : 42 b/s
Count of elements                        : 730
Stream size                              : 29.2 KiB (0%)
Language                                 : Spanish
Default                                  : No
Forced                                   : No

Text #2
ID                                       : 6
Format                                   : UTF-8
Codec ID                                 : S_TEXT/UTF8
Codec ID/Info                            : UTF-8 Plain Text
Duration                                 : 1 h 33 min
Bit rate                                 : 0 b/s
Count of elements                        : 13
Stream size                              : 677 Bytes (0%)
Title                                    : Forzados
Language                                 : Spanish
Default                                  : No
Forced                                   : No

Text #3
ID                                       : 7
Format                                   : UTF-8
Codec ID                                 : S_TEXT/UTF8
Codec ID/Info                            : UTF-8 Plain Text
Duration                                 : 1 h 26 min
Bit rate                                 : 45 b/s
Count of elements                        : 736
Stream size                              : 28.6 KiB (0%)
Language                                 : English
Default                                  : No
Forced                                   : No

Text #4
ID                                       : 8
Format                                   : UTF-8
Codec ID                                 : S_TEXT/UTF8
Codec ID/Info                            : UTF-8 Plain Text
Duration                                 : 1 h 26 min
Bit rate                                 : 46 b/s
Count of elements                        : 787
Stream size                              : 29.6 KiB (0%)
Title                                    : SDH
Language                                 : English
Default                                  : No
Forced                                   : No

Menu
00:00:00.000                             : en:00:00:00.000
00:09:50.100                             : en:00:09:50.100
00:22:34.614                             : en:00:22:34.614
00:33:07.747                             : en:00:33:07.747
00:43:43.340                             : en:00:43:43.340
00:57:20.448                             : en:00:57:20.448
01:07:17.836                             : en:01:07:17.836
01:21:14.380                             : en:01:21:14.380


Imagen Imagen Imagen Imagen Imagen Imagen Imagen Imagen Imagen Imagen Imagen Imagen Imagen Imagen Imagen Imagen Imagen

Imagen

BDRip 720p (Nuevo encode) vs BDRip 720p (Antiguo) vs Dvd (Pal)


Imagen
Imagen
Imagen


Imagen


Imagen


REVIEW

Imagen


Imagen





Audio y subtitulos:


- Para la V.O. audio AAC, pasado del Blu-ray. (English: DTS-HD Master Audio 2.0 Mono (48kHz, 16-bit)).

- Doblaje de 1955, incluido en el bluray de MGM pasado AAC.

- Incluye audio AC3 doblaje de 1973.

- Sub ingleses y castellanos con sus correspondientes forzados.

Imagen

CAPTURAS

Imagen
Imagen
Imagen
Imagen
Imagen
Imagen
Imagen
Imagen

Enlaces de descarga

Imagen


ed2k link1954-Vera.Cruz.BRx264.720p.AAC.AC3.Kino.(DMMD).mkv ed2k link stats


Imagen

Spoiler: mostrar
Imagen


Imagen



Vera Cruz


TÍTULO ORIGINAL Vera Cruz
AÑO 1954
DURACIÓN 94 min.
PAÍS Imagen
DIRECTOR Robert Aldrich
GUIÓN Roland Kibbee & James R. Webb (Historia: Borden Chase)
MÚSICA Hugo Friedhofer
FOTOGRAFÍA Ernest Laszlo
REPARTO Burt Lancaster, Gary Cooper, Denise Darcel, Sara Montiel (AKA Sarita Montiel), César Romero, George Macready, Ernest Borgnine, Jack Elam, Charles Bronson, Jack Lambert
PRODUCTORA MGM / UA
GÉNERO Western | Revolución Mexicana
SINOPSIS

En 1864, con el apoyo de los conservadores mejicanos, Napoleón III de Francia (1852-1871) impone como emperador de Méjico a Maximiliano de Austria, lo que provoca la rebelión de los juaristas. En plena guerra civil, dos mercenarios americanos (Gary Cooper y Burt Lancaster), tratando de sacar partido de la situación, ofrecen sus servicios al mejor postor. Así es como conocen a una hermosa juarista (Sara Montiel) y a una condesa francesa (Denise Darcel). (FILMAFFINITY)


CRÍTICA

Kriza Monument Valley (Estados Unidos)

La antesala del spaghetti western
Robert Aldrich estaba muy acostumbrado a trabajar con actores magníficos, y en su mítico western 'Veracruz' no hizo ninguna excepción. Los dos protagonistas, Gary Cooper y Burt Lancaster están inmensos, además de estar acompañados de unos secundarios de lujo: Ernest Borgnine, Charles Bronson o Jack Elam, entre otros. Como anécdota, decir, que Sarita Montiel participa en el reparto, como también participaría posteriormente en otro western, 'Yuma' de Fuller. La trama está ambientada en la revolución mexicana, y los dos americanos (Cooper y Lancaster) harán todo lo posible en el viaje hacia el puerto de Veracruz para hacerse con el oro de los juaristas.

Hay que destacar la importancia que tuvo esta película, pues creó, nada más ni nada menos que el germen del spaghetti-western. El film, siendo de 1954, es bastante atípico, ya que contiene mucha violencia para esa época y porque los personajes son de lo más cínicos, egoístas y sin escrupulos. Se supone que Cooper es el héroe, pero no es ningún santo; por otro lado, tampoco fue el típico héroe implacable que tanto gustaba a los americanos en la irrepetible 'Solo ante el peligro'. Si nos fijamos bien, en 'Veracruz' se parece más al bueno encarnado por Clint Eastwood que al bueno clásico de John Wayne, Henry Fonda o al héroe complejo de James Stewart, por citar a los más míticos vaqueros del oeste. En la cinta todos van a por el oro, y no dudarán ni un instante en pisotear a los demás para conseguir su objetivo. Se comportan como el bueno, el feo y el malo. No hay más.

Y además hay constancia de que Sergio Leone conoció personalmente a Robert Aldrich, puesto que el italiano sustituyó a éste en una película que debía dirigir en Cinecittà: 'Sodoma y Gomorra'. Así pues, se puede añadir que el western 'Veracruz' fue la inspiración de Leone, junto al calco de 'Yojimbo', para popularizar de manera espectacular el spaghetti-western en la década de los 60.

En fin, imprescindible para amantes del género. No se la pierdan.





Código: Seleccionar todo

General
Unique ID                                : 205819524076879757725519188782333537053 (0x9AD76601350606A0AC6C1EA06AAFAB1D)
Complete name                            : D:\Incoming\1954-Vera.Cruz.BRx264.720p.AC3[DMMD].mkv
Format                                   : Matroska
Format version                           : Version 2
File size                                : 4.63 GiB
Duration                                 : 1 h 33 min
Overall bit rate                         : 7 087 kb/s
Movie name                               : 1954-Vera Cruz....BR..720p...by...DMMD(HDCL)
Encoded date                             : UTC 2012-12-22 19:26:43
Writing application                      : mkvmerge v5.8.0 ('No Sleep / Pillow') built on Sep  2 2012 15:37:04
Writing library                          : libebml v1.2.3 + libmatroska v1.3.0
Attachments                              : 13.jpg / 12.jpg / 11.jpg / 0.jpg / 9.jpg / 8.jpg / 7.jpg / 6.jpg / 5.jpg / 4.jpg / 3.jpg / 2.jpg / 1.jpg

Video
ID                                       : 1
Format                                   : AVC
Format/Info                              : Advanced Video Codec
Format profile                           : High@L4.1
Format settings                          : CABAC / 10 Ref Frames
Format settings, CABAC                   : Yes
Format settings, RefFrames               : 10 frames
Codec ID                                 : V_MPEG4/ISO/AVC
Duration                                 : 1 h 33 min
Bit rate                                 : 6 242 kb/s
Width                                    : 1 280 pixels
Height                                   : 640 pixels
Display aspect ratio                     : 2.000
Frame rate mode                          : Constant
Frame rate                               : 23.976 (24000/1001) FPS
Color space                              : YUV
Chroma subsampling                       : 4:2:0
Bit depth                                : 8 bits
Scan type                                : Progressive
Bits/(Pixel*Frame)                       : 0.318
Stream size                              : 4.08 GiB (88%)
Writing library                          : x264 core 129 r2230 1cffe9f
Encoding settings                        : cabac=1 / ref=10 / deblock=1:-1:-1 / analyse=0x3:0x133 / me=umh / subme=10 / psy=1 / psy_rd=1.00:0.15 / mixed_ref=1 / me_range=24 / chroma_me=1 / trellis=2 / 8x8dct=1 / cqm=0 / deadzone=21,11 / fast_pskip=1 / chroma_qp_offset=-3 / threads=6 / lookahead_threads=1 / sliced_threads=0 / nr=0 / decimate=1 / interlaced=0 / bluray_compat=0 / constrained_intra=0 / bframes=8 / b_pyramid=2 / b_adapt=2 / b_bias=0 / direct=3 / weightb=1 / open_gop=0 / weightp=2 / keyint=250 / keyint_min=23 / scenecut=40 / intra_refresh=0 / rc_lookahead=60 / rc=crf / mbtree=1 / crf=17.5 / qcomp=0.60 / qpmin=0 / qpmax=69 / qpstep=4 / ip_ratio=1.40 / aq=1:1.00
Language                                 : English
Default                                  : Yes
Forced                                   : No

Audio #1
ID                                       : 2
Format                                   : AC-3
Format/Info                              : Audio Coding 3
Codec ID                                 : A_AC3
Duration                                 : 1 h 33 min
Bit rate mode                            : Constant
Bit rate                                 : 256 kb/s
Channel(s)                               : 2 channels
Channel positions                        : Front: L R
Sampling rate                            : 48.0 kHz
Frame rate                               : 31.250 FPS (1536 SPF)
Bit depth                                : 16 bits
Compression mode                         : Lossy
Stream size                              : 171 MiB (4%)
Title                                    : Doblaje 1955 (Blu Ray)
Language                                 : Spanish
Service kind                             : Complete Main
Default                                  : No
Forced                                   : No

Audio #2
ID                                       : 3
Format                                   : AC-3
Format/Info                              : Audio Coding 3
Codec ID                                 : A_AC3
Duration                                 : 1 h 33 min
Bit rate mode                            : Constant
Bit rate                                 : 192 kb/s
Channel(s)                               : 2 channels
Channel positions                        : Front: L R
Sampling rate                            : 48.0 kHz
Frame rate                               : 31.250 FPS (1536 SPF)
Bit depth                                : 16 bits
Compression mode                         : Lossy
Delay relative to video                  : 100 ms
Stream size                              : 129 MiB (3%)
Title                                    : Doblaje 1973
Language                                 : Spanish
Service kind                             : Complete Main
Default                                  : No
Forced                                   : No

Audio #3
ID                                       : 4
Format                                   : AC-3
Format/Info                              : Audio Coding 3
Codec ID                                 : A_AC3
Duration                                 : 1 h 33 min
Bit rate mode                            : Constant
Bit rate                                 : 256 kb/s
Channel(s)                               : 2 channels
Channel positions                        : Front: L R
Sampling rate                            : 48.0 kHz
Frame rate                               : 31.250 FPS (1536 SPF)
Bit depth                                : 16 bits
Compression mode                         : Lossy
Stream size                              : 171 MiB (4%)
Title                                    : (Blu Ray)
Language                                 : English
Service kind                             : Complete Main
Default                                  : No
Forced                                   : No

Text #1
ID                                       : 5
Format                                   : UTF-8
Codec ID                                 : S_TEXT/UTF8
Codec ID/Info                            : UTF-8 Plain Text
Title                                    : Forzados ((Blu Ray)
Language                                 : Spanish
Default                                  : Yes
Forced                                   : Yes

Text #2
ID                                       : 6
Format                                   : UTF-8
Codec ID                                 : S_TEXT/UTF8
Codec ID/Info                            : UTF-8 Plain Text
Title                                    : Dvd
Language                                 : Spanish
Default                                  : No
Forced                                   : No

Text #3
ID                                       : 7
Format                                   : UTF-8
Codec ID                                 : S_TEXT/UTF8
Codec ID/Info                            : UTF-8 Plain Text
Title                                    : (Blu Ray)
Language                                 : English
Default                                  : No
Forced                                   : No

Menu
00:00:00.000                             : en:00:00:00.000
00:03:49.396                             : en:00:03:49.396
00:09:57.138                             : en:00:09:57.138
00:13:54.375                             : en:00:13:54.375
00:22:41.443                             : en:00:22:41.443
00:37:10.770                             : en:00:37:10.770
00:39:43.756                             : en:00:39:43.756
00:43:51.087                             : en:00:43:51.087
00:48:52.972                             : en:00:48:52.972
00:53:30.332                             : en:00:53:30.332
00:57:27.527                             : en:00:57:27.527
00:59:55.050                             : en:00:59:55.050
01:07:25.333                             : en:01:07:25.333
01:12:33.474                             : en:01:12:33.474
01:16:04.351                             : en:01:16:04.351
01:24:49.501                             : en:01:24:49.501


REVIEW

Imagen


Vídeo:

Fue la primera película en presentarse en Superscope

Encode a partir del Bluray de MGM Home Entertainment



Presentada con un AR 2.00:1 , con una ligera mejora sobre el dvd, colores mas suaves que su predecesor, la imagen no es muy limpia que digamos, con lo que conlleva la perdida de detalle, se aprecia algo de ruido en las tomas exteriores , pero en general la transferencia es natural.



Imagen



Audios

Por un lado tenemos el "doblaje de 1955", incluido en el bluray

Y el que me proporciono santi el "doblaje de 1973".



Subtitulos:

Completos en castellano e inglés y forzados extraídos del bluray .




CAPTURAS

Imagen
Imagen
Imagen
Imagen
Imagen
Imagen



Enlaces de descarga

Imagen


ed2k link1954-Vera.Cruz.BRx264.720p.AC3(DMMD).mkv ed2k link stats
Última edición por DMMD el Jue 30 Dic, 2021 14:10, editado 4 veces en total.

Avatar de Usuario
Cirlot
Marxista, por Karl y Groucho
DXC Republican Clown
Mensajes: 4240
Registrado: Jue 05 Ago, 2004 02:00
Ubicación: Level 5

Re: Vera Cruz (Robert Aldrich, 1954) HD 720p Dual SE

Mensaje por Cirlot » Dom 23 Dic, 2012 16:42

Si es que no sabes estarte quieto. Muchas gracias, D.
Salud, comas, clowns y República


Avatar de Usuario
Kurinoki
Mensajes: 501
Registrado: Dom 02 Nov, 2003 01:00
Ubicación: Ahora cerca , luego depende , bueno , a 10372.09 Km ( o 6444.93 millas ) de Osaka

Re: Vera Cruz (Robert Aldrich, 1954) HD 720p Dual SE

Mensaje por Kurinoki » Dom 23 Dic, 2012 23:36

Gracias DMMD
El camino más corto entre dos puntos depende de quién dé las instrucciones .

Avatar de Usuario
Dardo
Arrow Thrower Clown
Mensajes: 17374
Registrado: Dom 19 Oct, 2003 02:00
Ubicación: Entre Encinas y Dolomías

Re: Vera Cruz (Robert Aldrich, 1954) HD 720p Dual SE

Mensaje por Dardo » Lun 24 Dic, 2012 10:05

Pues ya está completo este 720p, DMMD, una vez más gracias, me has dejado muy guapo :mrgreen:

Hablando ahora del Bluray, la realidad es que en su día sin ser esta película de mis preferidas de Burt lo pillé en vista a hacer un ripeo pero la paleta de colores y demás me decepcionó, esperaba otra cosa la verdad. He hecho alguna comparativa más aprovechando que ya tenía completo el BDRip y he buscado el DVDRip VOSE + AE que en su día hizo Shoocat (saludos gato :sonrisa: ), un ripeo muy guapo y he buscado dos primeros planos del final de la película
---------------------------

Imagen

Imagen

--------------------------

Imagen

Imagen
En este caso me hubiese gustado más un Bluray que se pareciese más a la edición en DVD, y después como suele ser habitual tubiera mayores texturas y demás elementos de mejora, además de la resolución claro está, pero en fin me imagino que habrán querido mantener la idea original o bien sacar un producto diferente.

Avatar de Usuario
DMMD
Mensajes: 1889
Registrado: Lun 27 Feb, 2012 14:16

Re: Vera Cruz (Robert Aldrich, 1954) HD 720p Dual SE

Mensaje por DMMD » Mar 25 Dic, 2012 12:35

Efectivamente Dardo gracias por las comparativas se agradecen :plas: , partiendo de la base que personalmente no me termina de llenar ninguna de las dos restauraciones y mas teniendo en cuenta que en SuperScope la cosa andaba bastante justita en cuanto imagen y no creo que tengamos ocasión de ver algo mejor.

Me llama la atención como en el dvd se les fue la mano con la luminosidad, si nos fijamos en la comparativa de la silla de montar, como el pequeño detalle aparece quemado debido a ese exceso, además que la imagen tiende a un tono demasiado rojizo para mi gusto, en cambio el blu es todo lo contrario, quizás como dices por mantener la idea original, aunque personalmente tampoco me termina de convencer, colores demasiados suaves con una pobre luminosidad., vamos que no le concedieron el premio al blu del año. :)

Creo que la cosa no daba pa mas. :|

felipemarlou
Mensajes: 486
Registrado: Lun 07 Oct, 2013 15:18

Re: Vera Cruz (Robert Aldrich, 1954) HD 720p Dual SE

Mensaje por felipemarlou » Dom 19 Abr, 2015 10:08

Me apunto a este estupendo Aldrich. La copia es, de largo, la mejor que hay en el mercado.

Gracias DMMD.

(Dardo, que no me haces los deberes...). :mrgreen:

Avatar de Usuario
Dardo
Arrow Thrower Clown
Mensajes: 17374
Registrado: Dom 19 Oct, 2003 02:00
Ubicación: Entre Encinas y Dolomías

Re: Vera Cruz (Robert Aldrich, 1954) HD 720p Dual SE

Mensaje por Dardo » Dom 19 Abr, 2015 11:39

felipemarlou escribió:Me apunto a este estupendo Aldrich. La copia es, de largo, la mejor que hay en el mercado.

Gracias DMMD.

(Dardo, que no me haces los deberes...). :mrgreen:
:mrgreen:
Imagen

Avatar de Usuario
elmajete
Mensajes: 1037
Registrado: Vie 18 May, 2007 22:05

Re: Vera Cruz (Robert Aldrich, 1954) HD 720p Dual SE

Mensaje por elmajete » Dom 19 Abr, 2015 14:46

Yo tambien me apunto a este copia, para jubilar mi DVD.
Esperopoder completarla.
Excelente trabajo DMMD, muchas gracias :plas: :plas: :plas:

Avatar de Usuario
bull
Mensajes: 315
Registrado: Lun 23 Sep, 2013 14:22

Re: Vera Cruz (Robert Aldrich, 1954) HD 720p Dual SE

Mensaje por bull » Dom 19 Abr, 2015 15:11

Enga, yo tambien me animo.
Saludos.

Avatar de Usuario
DMMD
Mensajes: 1889
Registrado: Lun 27 Feb, 2012 14:16

Re: Vera Cruz (Robert Aldrich, 1954) HD 720p Dual SE

Mensaje por DMMD » Dom 19 Abr, 2015 17:10

He actualizado el post principal, se cayo la comparativa una pena (al menos nos queda la de Dardo)

Aprovecho para dejar una Review de la época por parte de Bosley Crowther

http://www.nytimes.com/movie/review?res ... 838F649EDE

muy interesante este ultima frase:

The scenery might look pretty if the fuzziness of Superscope and the blobbiness of the color were not offensive to the eye.

Avatar de Usuario
Brateh
Amante del Cine
Mensajes: 431
Registrado: Sab 31 Jul, 2010 05:37
Ubicación: Argentina

Re: Vera Cruz (Robert Aldrich, 1954) HD 720p Dual SE

Mensaje por Brateh » Mié 22 Abr, 2015 01:10

:plas: :plas: ¡Gracias DMMD! A renovar lo existente...
Alta Definición es una necesidad... Bienvenida sea!!

Avatar de Usuario
Lucio49
Mensajes: 138
Registrado: Mié 04 Feb, 2015 16:59
Ubicación: Brazil

Re: Vera Cruz (Robert Aldrich, 1954) HD 720p Dual SE

Mensaje por Lucio49 » Mié 22 Abr, 2015 22:23

gracias

Avatar de Usuario
WalterBurns
Mensajes: 1214
Registrado: Dom 11 Oct, 2015 15:08

Re: Vera Cruz (Robert Aldrich, 1954) HD 720p Dual SE

Mensaje por WalterBurns » Sab 05 Dic, 2015 19:26

Gracias por compartir este trabajo.

torresmostoles
Pasion por los clasicos!!
Mensajes: 229
Registrado: Dom 25 Mar, 2018 18:55
Ubicación: madrid sur

Re: Vera Cruz (Robert Aldrich, 1954) HD 720p Dual SE

Mensaje por torresmostoles » Jue 29 Mar, 2018 12:22

Enorme trabajo gracias

Avatar de Usuario
javisambo
Hombre renacentista. Judoka.
Mensajes: 2237
Registrado: Mar 07 Ago, 2012 07:51
Ubicación: Génova 13

Re: Vera Cruz (Robert Aldrich, 1954) HD 720p Dual SE

Mensaje por javisambo » Dom 01 Abr, 2018 09:59

Que cruz este DMMD! :mrgreen:

Gracias, gracias, gracias. Completa y repartiendo

Avatar de Usuario
DMMD
Mensajes: 1889
Registrado: Lun 27 Feb, 2012 14:16

Re: Vera Cruz (Robert Aldrich, 1954) HD 720p Dual SE

Mensaje por DMMD » Dom 01 Abr, 2018 12:35

Pues aprovechamos para reponer temitas y nuevamente enlazamos una comparativa con la edición dvd de la metro :wink:

Avatar de Usuario
DMMD
Mensajes: 1889
Registrado: Lun 27 Feb, 2012 14:16

Vera Cruz (Robert Aldrich, 1954) HD 720p Dual SE

Mensaje por DMMD » Mié 29 Dic, 2021 17:32

Imagen


Imagen



Vera Cruz


TÍTULO ORIGINAL Vera Cruz
AÑO 1954
DURACIÓN 94 min.
PAÍS Imagen
DIRECTOR Robert Aldrich
GUIÓN Roland Kibbee & James R. Webb (Historia: Borden Chase)
MÚSICA Hugo Friedhofer
FOTOGRAFÍA Ernest Laszlo
REPARTO Burt Lancaster, Gary Cooper, Denise Darcel, Sara Montiel (AKA Sarita Montiel), César Romero, George Macready, Ernest Borgnine, Jack Elam, Charles Bronson, Jack Lambert
PRODUCTORA MGM / UA
GÉNERO Western | Revolución Mexicana
SINOPSIS

En 1864, con el apoyo de los conservadores mejicanos, Napoleón III de Francia (1852-1871) impone como emperador de Méjico a Maximiliano de Austria, lo que provoca la rebelión de los juaristas. En plena guerra civil, dos mercenarios americanos (Gary Cooper y Burt Lancaster), tratando de sacar partido de la situación, ofrecen sus servicios al mejor postor. Así es como conocen a una hermosa juarista (Sara Montiel) y a una condesa francesa (Denise Darcel). (FILMAFFINITY)


Vídeo:

Primera película en presentarse en Superscope

- Encode a partir de la edición del Bluray Kino Lorber (2K master)

- Dejo este nuevo encode de Kino, que mejora tanto el bluray anterior de la MGM como las ediciones de dvd, no me he equivocado he escrito Kino :biggrin:

- Encuadre mas abierto, el tratamiento de la colorimetría es el mayor acierto de esta edición, aunque sigue manteniendo algunos defectos.

Imagen Imagen Imagen Imagen Imagen Imagen Imagen Imagen Imagen Imagen Imagen Imagen


Código: Seleccionar todo

General
Unique ID                                : 242616276599294090123702805983531784577 (0xB68631F94582E12B82CB1359F1BA5981)
Complete name                            : D:\Incoming\1954-Vera.Cruz.BRx264.720p.AAC.AC3.Kino.(DMMD).mkv
Format                                   : Matroska
Format version                           : Version 4
File size                                : 7.02 GiB
Duration                                 : 1 h 33 min
Overall bit rate                         : 10.8 Mb/s
Movie name                               : 1954-Vera.Cruz.BRx264.720pAAC.AC3.(DMMD)
Encoded date                             : UTC 2021-12-26 19:59:07
Writing application                      : mkvmerge v63.0.0 ('Everything') 64-bit
Writing library                          : libebml v1.4.2 + libmatroska v1.6.4
Attachments                              : 1 / 2 / 3 / 4 / 5 / 6 / 7 / 8 / 9 / 10 / 11

Video
ID                                       : 1
Format                                   : AVC
Format/Info                              : Advanced Video Codec
Format profile                           : High@L4.1
Format settings                          : CABAC / 10 Ref Frames
Format settings, CABAC                   : Yes
Format settings, Reference frames        : 10 frames
Codec ID                                 : V_MPEG4/ISO/AVC
Duration                                 : 1 h 33 min
Bit rate                                 : 10.2 Mb/s
Width                                    : 1 280 pixels
Height                                   : 640 pixels
Display aspect ratio                     : 2.000
Frame rate mode                          : Constant
Frame rate                               : 23.976 (24000/1001) FPS
Color space                              : YUV
Chroma subsampling                       : 4:2:0
Bit depth                                : 8 bits
Scan type                                : Progressive
Bits/(Pixel*Frame)                       : 0.521
Stream size                              : 6.67 GiB (95%)
Title                                    : Kino
Writing library                          : x264 core 152 r2851kMod ba24899
Encoding settings                        : cabac=1 / ref=10 / deblock=1:-3:-3 / analyse=0x3:0x133 / me=umh / subme=11 / psy=1 / fade_compensate=0.00 / psy_rd=1.10:0.00 / mixed_ref=1 / me_range=24 / chroma_me=1 / trellis=2 / 8x8dct=1 / cqm=0 / deadzone=21,11 / fast_pskip=0 / chroma_qp_offset=-2 / threads=6 / lookahead_threads=1 / sliced_threads=0 / nr=0 / decimate=0 / interlaced=0 / bluray_compat=0 / constrained_intra=0 / bframes=11 / b_pyramid=2 / b_adapt=2 / b_bias=0 / direct=3 / weightb=1 / open_gop=0 / weightp=2 / keyint=250 / keyint_min=23 / scenecut=40 / intra_refresh=0 / rc=crf / mbtree=0 / crf=19.0000 / qcomp=0.80 / qpmin=0 / qpmax=69 / qpstep=4 / ip_ratio=1.17 / pb_ratio=1.10 / aq=3:0.70
Language                                 : English
Default                                  : Yes
Forced                                   : No

Audio #1
ID                                       : 2
Format                                   : AAC LC
Format/Info                              : Advanced Audio Codec Low Complexity
Codec ID                                 : A_AAC-2
Duration                                 : 1 h 33 min
Bit rate                                 : 171 kb/s
Channel(s)                               : 2 channels
Channel layout                           : L R
Sampling rate                            : 48.0 kHz
Frame rate                               : 46.875 FPS (1024 SPF)
Compression mode                         : Lossy
Delay relative to video                  : 9 ms
Stream size                              : 115 MiB (2%)
Language                                 : English
Default                                  : Yes
Forced                                   : No

Audio #2
ID                                       : 3
Format                                   : AAC LC
Format/Info                              : Advanced Audio Codec Low Complexity
Codec ID                                 : A_AAC-2
Duration                                 : 1 h 33 min
Bit rate                                 : 144 kb/s
Channel(s)                               : 2 channels
Channel layout                           : L R
Sampling rate                            : 48.0 kHz
Frame rate                               : 46.875 FPS (1024 SPF)
Compression mode                         : Lossy
Delay relative to video                  : 9 ms
Stream size                              : 97.1 MiB (1%)
Title                                    : Doblaje 1955
Language                                 : Spanish
Default                                  : No
Forced                                   : No

Audio #3
ID                                       : 4
Format                                   : AC-3
Format/Info                              : Audio Coding 3
Commercial name                          : Dolby Digital
Codec ID                                 : A_AC3
Duration                                 : 1 h 33 min
Bit rate mode                            : Constant
Bit rate                                 : 192 kb/s
Channel(s)                               : 2 channels
Channel layout                           : L R
Sampling rate                            : 48.0 kHz
Frame rate                               : 31.250 FPS (1536 SPF)
Compression mode                         : Lossy
Stream size                              : 128 MiB (2%)
Title                                    : Doblaje 1973
Language                                 : Spanish
Service kind                             : Complete Main
Default                                  : No
Forced                                   : No

Text #1
ID                                       : 5
Format                                   : UTF-8
Codec ID                                 : S_TEXT/UTF8
Codec ID/Info                            : UTF-8 Plain Text
Duration                                 : 1 h 33 min
Bit rate                                 : 42 b/s
Count of elements                        : 730
Stream size                              : 29.2 KiB (0%)
Language                                 : Spanish
Default                                  : No
Forced                                   : No

Text #2
ID                                       : 6
Format                                   : UTF-8
Codec ID                                 : S_TEXT/UTF8
Codec ID/Info                            : UTF-8 Plain Text
Duration                                 : 1 h 33 min
Bit rate                                 : 0 b/s
Count of elements                        : 13
Stream size                              : 677 Bytes (0%)
Title                                    : Forzados
Language                                 : Spanish
Default                                  : No
Forced                                   : No

Text #3
ID                                       : 7
Format                                   : UTF-8
Codec ID                                 : S_TEXT/UTF8
Codec ID/Info                            : UTF-8 Plain Text
Duration                                 : 1 h 26 min
Bit rate                                 : 45 b/s
Count of elements                        : 736
Stream size                              : 28.6 KiB (0%)
Language                                 : English
Default                                  : No
Forced                                   : No

Text #4
ID                                       : 8
Format                                   : UTF-8
Codec ID                                 : S_TEXT/UTF8
Codec ID/Info                            : UTF-8 Plain Text
Duration                                 : 1 h 26 min
Bit rate                                 : 46 b/s
Count of elements                        : 787
Stream size                              : 29.6 KiB (0%)
Title                                    : SDH
Language                                 : English
Default                                  : No
Forced                                   : No

Menu
00:00:00.000                             : en:00:00:00.000
00:09:50.100                             : en:00:09:50.100
00:22:34.614                             : en:00:22:34.614
00:33:07.747                             : en:00:33:07.747
00:43:43.340                             : en:00:43:43.340
00:57:20.448                             : en:00:57:20.448
01:07:17.836                             : en:01:07:17.836
01:21:14.380                             : en:01:21:14.380


Imagen Imagen Imagen Imagen Imagen Imagen Imagen Imagen Imagen Imagen Imagen Imagen Imagen Imagen Imagen Imagen Imagen

Imagen

BDRip 720p (Nuevo encode) vs BDRip 720p (Antiguo) vs Dvd (Pal)


Imagen
Imagen
Imagen


Imagen


Imagen


REVIEW

Imagen


Imagen





Audio y subtitulos:


- Para la V.O. audio AAC, pasado del Blu-ray. (English: DTS-HD Master Audio 2.0 Mono (48kHz, 16-bit)).

- Doblaje de 1955, incluido en el bluray de MGM pasado AAC.

- Incluye audio AC3 doblaje de 1973.

- Sub ingleses y castellanos con sus correspondientes forzados.

Imagen

CAPTURAS

Imagen
Imagen
Imagen
Imagen
Imagen
Imagen
Imagen
Imagen

Enlaces de descarga

Imagen


ed2k link1954-Vera.Cruz.BRx264.720p.AAC.AC3.Kino.(DMMD).mkv ed2k link stats


Imagen

ostrata
Mensajes: 2516
Registrado: Mié 24 Mar, 2010 17:29

Re: Vera Cruz (Robert Aldrich, 1954) HD 720p Dual SE

Mensaje por ostrata » Mié 29 Dic, 2021 18:28

Renovamos, gracias. :)

Saludos.

torresmostoles
Pasion por los clasicos!!
Mensajes: 229
Registrado: Dom 25 Mar, 2018 18:55
Ubicación: madrid sur

Re: Vera Cruz (Robert Aldrich, 1954) HD 720p Dual SE

Mensaje por torresmostoles » Mié 29 Dic, 2021 20:09

Superarse era dificíl ya..tope de gama en calidad de imagen sin duda me la llevo cargada en la mula :mrgreen: que este mes está en plena forma gracias por el segundo doblaje de cine es mi favorito otro montaje de altisima calidad que se une a las sorpresas del 2021 y espero que el 22 siga habiendo montajes de calidad superior... :plas: :plas: es un placer teneros en el foro uno mas de los imprescindibles :biggrin: DMMD
Os deseo felíz nochevieja y año nuevo amigos de divx clásico :mrgreen:

Avatar de Usuario
baldomp
Mensajes: 511
Registrado: Mar 15 Ago, 2017 12:55

Re: Vera Cruz (Robert Aldrich, 1954) HD 720p Dual SE

Mensaje por baldomp » Jue 30 Dic, 2021 09:55

DMMD escribió:
Mié 29 Dic, 2021 17:32
Imagen
Imagen
...
...
¡Maravilloso, maravilloso, maravilloso... DMMD! (mil gracias). Ví esta película como niño de pantalones cortos (si... ¡soy de esa época!) claramente con el doblaje anterior al 73 y, teniendo en cuenta que fue en un cine de pueblo, sin conversión anamórfica sino a buen seguro en una copia 35mm ya "enderezada".

Como consejo, no os "volvais locos" tanto ya (aunque tengais loable 8) afán de mejora contínua) técnicamente, porque el límite está "donde está".

Me explico: Superscope no era tan nítido como Cinemascope en "la guerra de las anamórficas" y recuerdo libros técnicos e históricos de cinematografía donde se especificaba que los críticos fueron especialmente duros, en concreto en Veracruz, con la "borrosidad" en pantalla (así que pienso que el escaneo del negativo es el que es).
New York Times film critic Bosley Crowther had severely criticized Vera Cruz for its fuzzy photography and blobby colors.
En cuanto a colorimetría... cuidado: es Technicolor y es complicado esperar una paleta "real" o en cualquier caso con tanta cromaticidad como los procesos fotográficos posteriores (cuando apareció Eastmancolor) y actuales.

Así que ... yo "me quedo" con tu estupendo trabajo, que además pienso disfrutar como se disfrutan estas películas: proyectada. :mrgreen:

Un saludo.



Responder