Grupo salvaje (Sam Peckinpah, 1969) BRRip Dual SE

Publica y encuentra enlaces p2p de filmes hasta 1980 en esta sección.
Responder
Avatar de Usuario
Dardo
Arrow Thrower Clown
Mensajes: 16583
Registrado: Dom 19 Oct, 2003 02:00
Ubicación: Entre Encinas y Dolomías

Grupo salvaje (Sam Peckinpah, 1969) BRRip Dual SE

Mensaje por Dardo » Mié 29 Jun, 2011 08:46

Puesto que hasta la fecha teníamos publicado un The Wild Bunch (Sam Peckinpah, 1969) HDRip 720p VOSE y Grupo salvaje (Sam Peckinpah, 1969) DVDRip Dual SE nos faltaba un ripeo en Xvid-Dual, de fuente el Bluray de esta maravillosa película que poca presentación necesita...
THE WILD BUNCH- 1969
Grupo Salvaje

Año de producción: 1969
País: EE.UU.
Dirección: Sam Peckinpah
Intérpretes: William Holden, Ernest Borgnine, Robert Ryan, Warren Oates, Edmond O'Brien, Jaime Sánchez, Ben Johnson
Guión: Walon Green, Sam Peckinpah, Walon Green, Roy N. Sickner
Música: Jerry Fielding
Fotografía: Lucien Ballard
Duración: 134 min.
Género: Western
Sinopsis y Comentario:
1911. La era del lejano Oeste llega a su fin. Pike Bishop atraca un banco con su banda. Pero unos cazarrecompensas les han tendido una emboscada. Los hombres de Pike aprovechan un desfile para escudarse tras ciudadanos inocentes. La situación provoca una masacre, pero Pike y otros cuatro forajidos emprenden la huida.
La obra cumbre de Peckinpah, donde muestra su turbia visión de un mundo lleno de auténticos depredadores salvajes, en el que resulta difícil sobrevivir. Sus protagonistas son tipos desagradables, capaces de provocar una matanza de inocentes para abrirse camino. Pero el director es capaz de mostrar su punto de vista, y les otorga rasgos de humanidad y ciertos valores, como la lealtad. Así, el espectador llega a empatizar en mayor o menor medida con ellos, sobre todo en comparación con los siniestros cazarrecompensas a las órdenes del ferrocarril, o el despiadado general Mapache, todos ellos inmorales.
Peckinpah un experto en perdedores:
"Mis héroes son perdedores que han sido derrotados antes de vivir su historia, como en las tragedias clásicas", dijo Peckinpah sobre sus personajes. "Se han acostumbrado desde hace tiempo a la muerte y no les queda nada que perder", explica. Sus personajes son el reverso tenebroso de los héroes típicos del western: tipos desesperanzados incapaces de luchar por causas justas.
decine21


Datos Técnicos

Código: Seleccionar todo

General
Complete name                    : The Wild Bunch (1969) BRRip Dual [Ing & Esp] [DXC].avi
Format                           : AVI
Format/Info                      : Audio Video Interleave
Format profile                   : OpenDML
File size                        : 2.52 GiB
Duration                         : 2h 18mn
Overall bit rate                 : 2 594 Kbps
Writing application              : VirtualDubMod 1.5.4.1 (build 2066/release)
Writing library                  : VirtualDubMod build 2066/release

Video
ID                               : 0
Format                           : MPEG-4 Visual
Format profile                   : Advanced Simple@L5
Format settings, BVOP            : No
Format settings, QPel            : No
Format settings, GMC             : No warppoints
Format settings, Matrix          : Default (MPEG)
Codec ID                         : XVID
Codec ID/Hint                    : XviD
Duration                         : 2h 18mn
Bit rate                         : 2 001 Kbps
Width                            : 720 pixels
Height                           : 304 pixels
Display aspect ratio             : 2.37:1
Frame rate                       : 25.000 fps
Color space                      : YUV
Chroma subsampling               : 4:2:0
Bit depth                        : 8 bits
Scan type                        : Progressive
Bits/(Pixel*Frame)               : 0.366
Stream size                      : 1.94 GiB (77%)
Writing library                  : XviD 64

Audio #1
ID                               : 1
Format                           : AC-3
Format/Info                      : Audio Coding 3
Mode extension                   : CM (complete main)
Codec ID                         : 2000
Duration                         : 2h 18mn
Bit rate mode                    : Constant
Bit rate                         : 384 Kbps
Channel(s)                       : 6 channels
Channel positions                : Front: L C R, Side: L R, LFE
Sampling rate                    : 48.0 KHz
Bit depth                        : 16 bits
Video delay                      : 4ms
Stream size                      : 381 MiB (15%)
Alignment                        : Split accross interleaves
Interleave, duration             : 40 ms (1.00 video frame)
Interleave, preload duration     : 500 ms

Audio #2
ID                               : 2
Format                           : AC-3
Format/Info                      : Audio Coding 3
Mode extension                   : CM (complete main)
Codec ID                         : 2000
Duration                         : 2h 18mn
Bit rate mode                    : Constant
Bit rate                         : 192 Kbps
Channel(s)                       : 1 channel
Channel positions                : Front: C
Sampling rate                    : 48.0 KHz
Bit depth                        : 16 bits
Video delay                      : 4ms
Stream size                      : 191 MiB (7%)
Alignment                        : Split accross interleaves
Interleave, duration             : 40 ms (1.00 video frame)
Interleave, preload duration     : 500 ms
Capturas

Imagen

Imagen

Imagen

Imagen

Imagen

Imagen

Imagen

Imagen
Enlaces
** Los subtítulos son los que había de Shoocat adaptados a esta versión. [Gracias Gato]
***************************
Anteriores ripeos publicados en DXC:

Otros Enlaces de Interés:

Avatar de Usuario
juan_0316
Mensajes: 1856
Registrado: Vie 21 Mar, 2003 01:00

Re: Grupo Salvaje (Sam Peckinpah, 1969) BRRip Dual SE

Mensaje por juan_0316 » Mié 29 Jun, 2011 09:10

Pîncharemos. Gracias dardo
Bienaventurados quienes se ríen de sí mismos, pues nunca les faltarán motivos

Avatar de Usuario
Palahniuk
What a day, what a lovely day!
Mensajes: 3885
Registrado: Vie 09 Jun, 2006 23:07
Ubicación: Vuelo 2039

Re: Grupo salvaje (Sam Peckinpah, 1969) BRRip Dual SE

Mensaje por Palahniuk » Mié 29 Jun, 2011 14:52

Estuve a punto de bajar otra por ahi, pero esta gana. Gracias Dardín.
Imagen

Avatar de Usuario
Dardo
Arrow Thrower Clown
Mensajes: 16583
Registrado: Dom 19 Oct, 2003 02:00
Ubicación: Entre Encinas y Dolomías

Re: Grupo salvaje (Sam Peckinpah, 1969) BRRip Dual SE

Mensaje por Dardo » Sab 02 Jul, 2011 17:19

Por motivos que desconozco había estado en Low ID y el reparto ha sido nulo o casi nulo. Ya he solucionado el asunto asi que el reparto se irá haciendo de una forma normalizada.

Saludos y Gracias. :wink:

Avatar de Usuario
SolPolito
Vigorito
Mensajes: 3631
Registrado: Lun 03 Feb, 2003 01:00

Re: Grupo salvaje (Sam Peckinpah, 1969) BRRip Dual SE

Mensaje por SolPolito » Jue 07 Jul, 2011 08:28

Puesta a descargar hace bien poco y a buen ritmo.
Muchas Gracias.
No te dejes
Arriba los pobres de Honduras

Avatar de Usuario
Marc27
Mensajes: 2500
Registrado: Lun 01 Dic, 2003 01:00
Ubicación: Sentado en mi nube, contemplando las estrellas

Re: Grupo salvaje (Sam Peckinpah, 1969) BRRip Dual SE

Mensaje por Marc27 » Vie 08 Jul, 2011 01:32

Muchas gracias Dardo, con tu permiso me la llevo al Galeón.

Saludos. :D

Avatar de Usuario
sgtabbeyroad
Living is easy with eyes closed
Mensajes: 12
Registrado: Dom 12 Oct, 2008 15:31

Re: Grupo salvaje (Sam Peckinpah, 1969) BRRip Dual SE

Mensaje por sgtabbeyroad » Vie 08 Jul, 2011 23:50

Gracias, la transporto a Leyenda. :mrgreen: :mrgreen: :wink: :wink:
Imagen

Avatar de Usuario
Dardo
Arrow Thrower Clown
Mensajes: 16583
Registrado: Dom 19 Oct, 2003 02:00
Ubicación: Entre Encinas y Dolomías

Re: Grupo salvaje (Sam Peckinpah, 1969) BRRip Dual SE

Mensaje por Dardo » Sab 09 Jul, 2011 01:44

Marc27 escribió:Muchas gracias Dardo, con tu permiso me la llevo al Galeón.

Saludos. :D
sgtabbeyroad escribió:Gracias, la transporto a Leyenda. :mrgreen: :mrgreen: :wink: :wink:
Marc27 ya sabes que no hace falta ni que me lo comentes, hay viejos amigos por el "Galeón" y siempre es bueno compartir unos megas con ellos. :wink:

Y lo mismo te digo sgtabbyroad, cualquier ripeo que os resulte interesante en Forajidos puedes postearlo por allí, compartimos la pasión por el género del western y eso une mucho :pistolero: :mrgreen:

Ya hay unas cuantas fuentes completas asi que daré prioridad a otros archivos que necesitan más ayuda, no obstante ya sabeis que con comentarme cualquier problema por aquí estoy.

Responder