Hell Is for Heroes (Don Siegel, 1962) DVDRip Dual SE

Publica y encuentra enlaces p2p de filmes hasta 1980 en esta sección.
Avatar de Usuario
Dardo
Arrow Thrower Clown

Mensajes: 15326
Registrado: Dom 19 Oct, 2003 02:00
Ubicación: Entre Encinas y Dolomías

Hell Is for Heroes (Don Siegel, 1962) DVDRip Dual SE

Mensajepor Dardo » Mié 12 Ene, 2011 10:57

Primera de las tres películas consecutivas que Steve McQueen protagonizó sobre la guerra, ya que después llegarían El amante de la muerte (1962) y La gran evasión (1963). Durante el rodaje de Comando, el actor cambió al director inicialmente previsto - el autor del guión Robert Pirosh-, sustituyéndolo por Don Siegel; además, participó activamente en el film, aportando ideas. Fuente

HELL IS FOR HEROES
COMANDO
(Don Siegel, 1962)

Imagen

TÍTULO ORIGINAL: Hell is For Heroes
AÑO: 1962
DURACIÓN : 90 min.
PAÍS : [Estados Unidos]
DIRECTOR : Don Siegel
GUIÓN : Robert Pirosh & Richard Carr
MÚSICA : Leonard Rosenman
FOTOGRAFÍA : Harold Lipstein (B&W)
REPARTO : Steve McQueen, Bobby Darin, Nick Adams, Fess Parker, James Coburn, Bob Newhart, Harry Guardino, Mike Kellin
PRODUCTORA : Paramount Pictures
GÉNERO : Bélico | II Guerra Mundial
SINOPSIS : Steve McQueen interpreta a John Reese, un polémico y rebelde militar que muestra una gran valentía en el campo de batalla. En el otoño de 1944 le degradan y le envían a la línea de Sigfrido, cerca de Bélgica. Su carácter amargo le mantiene alejado del resto del escuadrón, pero su coraje durante la batalla se les contagia. Un día Reee, sin autorización de sus superiores, inicia el asalto de una fortificación alemana. El hecho motiva que sea acusado de indisciplina ante un consejo de guerra. (FILMAFFINITY)


Datos Técnicos

Código: Seleccionar todo

General
Complete name                    : Hell Is For Heroes 1965 DVDRip Dual [Esp & Ing] Xvid.Mp3 [DXC].avi
Format                           : AVI
Format/Info                      : Audio Video Interleave
File size                        : 1.36 GiB
Duration                         : 1h 26mn
Overall bit rate                 : 2 256 Kbps
Writing application              : VirtualDubMod 1.5.4.1 (build 2066/release)
Writing library                  : VirtualDubMod build 2066/release

Video
ID                               : 0
Format                           : MPEG-4 Visual
Format profile                   : Advanced Simple@L5
Format settings, BVOP            : Yes
Format settings, QPel            : No
Format settings, GMC             : No warppoints
Format settings, Matrix          : Default (MPEG)
Codec ID                         : XVID
Codec ID/Hint                    : XviD
Duration                         : 1h 26mn
Bit rate                         : 1 858 Kbps
Width                            : 720 pixels
Height                           : 384 pixels
Display aspect ratio             : 1.875
Frame rate                       : 25.000 fps
Color space                      : YUV
Chroma subsampling               : 4:2:0
Bit depth                        : 8 bits
Scan type                        : Progressive
Bits/(Pixel*Frame)               : 0.269
Stream size                      : 1.12 GiB (82%)
Writing library                  : XviD 1.2.1 (UTC 2008-12-04)

Audio #1
ID                               : 1
Format                           : MPEG Audio
Format version                   : Version 1
Format profile                   : Layer 3
Mode                             : Joint stereo
Mode extension                   : MS Stereo
Codec ID                         : 55
Codec ID/Hint                    : MP3
Duration                         : 1h 26mn
Bit rate mode                    : Constant
Bit rate                         : 192 Kbps
Channel(s)                       : 2 channels
Sampling rate                    : 48.0 KHz
Stream size                      : 118 MiB (9%)
Alignment                        : Aligned on interleaves
Interleave, duration             : 40 ms (1.00 video frame)
Interleave, preload duration     : 504 ms
Writing library                  : LAME3.98r
Encoding settings                : -m j -V 4 -q 2 -lowpass 18.6 -b 192

Audio #2
ID                               : 2
Format                           : MPEG Audio
Format version                   : Version 1
Format profile                   : Layer 3
Mode                             : Joint stereo
Mode extension                   : MS Stereo
Codec ID                         : 55
Codec ID/Hint                    : MP3
Duration                         : 1h 26mn
Bit rate mode                    : Constant
Bit rate                         : 192 Kbps
Channel(s)                       : 2 channels
Sampling rate                    : 48.0 KHz
Stream size                      : 118 MiB (9%)
Alignment                        : Aligned on interleaves
Interleave, duration             : 40 ms (1.00 video frame)
Interleave, preload duration     : 504 ms
Writing library                  : LAME3.98r
Encoding settings                : -m j -V 4 -q 2 -lowpass 18.6 -b 192


Capturas

Imagen
Imagen
Imagen
Imagen
Imagen
Imagen

Enlaces

Hell Is For Heroes 1965 DVDRip Dual [Esp & Ing] Xvid.Mp3 [DXC].avi [1.36 Gb] [Info]

Subtítulos (son los subidos por xjonax, a solosubtítulos) : Subtítulos Español (descarga directa)

Subtítulos corregidos [cortesía de Marlowe62] (descarga directa): castellano / inglés.
Subs en inglés, sincronizados para esta versión.

** Si alguien quiere puedo extraer los del DVD pero en principio creo que están bien los posteados.

--------------------------------------

Anteriormente en DXC

Comando (Don Siegel, 1962) DVDRip VOSE + AE

Avatar de Usuario
roisiano
Polemista nato

Mensajes: 5438
Registrado: Dom 17 Jul, 2005 02:00
Ubicación: Al final del río

Re: Hell Is For Heroes (Don Siegel, 1962) DVDRip Dual SE

Mensajepor roisiano » Mié 12 Ene, 2011 11:24

Acababa de ripearla hace unos días. Te me has adelantado :mrgreen:. Tiene una pinta excelente.
Florentino, fíchame.
Por 6.000 € netos mensuales te convierto en el mejor presidente de la historia.

Avatar de Usuario
plateiro

Mensajes: 941
Registrado: Dom 21 Mar, 2004 01:00

Re: Hell Is For Heroes (Don Siegel, 1962) DVDRip Dual SE

Mensajepor plateiro » Mié 12 Ene, 2011 11:51

Acabo de leer y me pongo con ella. Tiene muy buena pinta ....
No la conocía :oops:
Cuenta con un plantel de secundarios excelente, Darin, Guardino, Fess Parker....
Este último lo recuerdo de la serie Daniel Boone, cuando la TV era en blanco y negro :wink:
Saludos y gracias DD :plas: :plas:
When an actor comes to me and wants to discuss his character, I say, "It's in the script". If he says, "But what's my motivation?", I say, "Your salary".
Alfred Hitchcock

Avatar de Usuario
marlowe62
Stetson dissolutus

Mensajes: 6585
Registrado: Mar 06 Jul, 2004 02:00
Ubicación: Baneado

Re: Hell Is for Heroes (Don Siegel, 1962) DVDRip Dual SE

Mensajepor marlowe62 » Mié 12 Ene, 2011 22:41

Buen drama bélico que, como comenta plateiro cuenta con el aliciente añadido de un magnífico reparto.

Muchas gracias, Dardo.

Avatar de Usuario
plateiro

Mensajes: 941
Registrado: Dom 21 Mar, 2004 01:00

Re: Hell Is for Heroes (Don Siegel, 1962) DVDRip Dual SE

Mensajepor plateiro » Vie 14 Ene, 2011 11:08

14/01/2011 2:09:39: Descarga finalizada de Hell Is For Heroes 1965 DVDRip Dual [Esp & Ing] Xvid.Mp3 [DXC].avi :)
Muchas gracias por la ayuda; aquí estoy para lo que haga falta.
Saludos :wink:
When an actor comes to me and wants to discuss his character, I say, "It's in the script". If he says, "But what's my motivation?", I say, "Your salary".
Alfred Hitchcock

Avatar de Usuario
marlowe62
Stetson dissolutus

Mensajes: 6585
Registrado: Mar 06 Jul, 2004 02:00
Ubicación: Baneado

Re: Hell Is for Heroes (Don Siegel, 1962) DVDRip Dual SE

Mensajepor marlowe62 » Lun 13 Jun, 2011 23:28

Subtítulos (descarga directa): castellano / inglés.
Subs en inglés, sincronizados para esta versión.

Saludos.

Avatar de Usuario
LuisNieto

Mensajes: 1137
Registrado: Mié 29 Feb, 2012 16:36
Ubicación: 308 Negra Arroyo Lane

Re: Hell Is for Heroes (Don Siegel, 1962) DVDRip Dual SE

Mensajepor LuisNieto » Mar 08 May, 2012 16:54

Descargada perfectamente, Hell is for Heroes and for me :mrgreen:

Saludos y gracias, claro.

Avatar de Usuario
jomime

Mensajes: 573
Registrado: Vie 02 Mar, 2012 13:27

Re: Hell Is for Heroes (Don Siegel, 1962) DVDRip Dual SE

Mensajepor jomime » Mar 08 May, 2012 18:07

Me apunto ........ "pal" modorro

Avatar de Usuario
paizoco

Mensajes: 2061
Registrado: Vie 21 Nov, 2003 01:00
Ubicación: Far West

Re: Hell Is for Heroes (Don Siegel, 1962) DVDRip Dual SE

Mensajepor paizoco » Lun 16 Oct, 2017 23:09

Me apunto ahora, muchas gracias.


Volver a “Cine Clásico”

¿Quién está conectado?

Usuarios navegando por este Foro: Google [Bot], nadaes, zundertaker y 7 invitados