The Wild Bunch (Sam Peckinpah, 1969) HD 1080/720p VOSE + AE

Publica y encuentra enlaces p2p de filmes hasta 1980 en esta sección.
Responder
Avatar de Usuario
duby
Mensajes: 1442
Registrado: Mié 04 Feb, 2004 01:00

The Wild Bunch (Sam Peckinpah, 1969) HD 1080/720p VOSE + AE

Mensaje por duby » Mié 07 Ene, 2009 22:45

Actualizo el post con el 1080p de roisiano
Grupo Salvaje (The Wild Bunch)

Imagen
IMDb | FilmAffinity | Miradas de Cine

TITULO ORIGINAL
The Wild Bunch

AÑO
1969

DURACIÓN
145 min.

PAÍS
Estados Unidos

DIRECTOR
Sam Peckinpah

GUIÓN
Walon Green & Sam Peckinpah

MÚSICA
Jerry Fielding

FOTOGRAFÍA
Lucien Ballard

REPARTO
William Holden, Ernest Borgnine, Robert Ryan, Edmond O'Brien, Warren Oates, Jaime Sanchez, Ben Johnson, Alfonso Arau, L.Q. Jones

PRODUCTORA
Warner Bros. Pictures

TRAILER
http://www.youtube.com/watch?v=nOTkmO23k7I

SINOPSIS
Un grupo de veteranos atracadores de bancos, desarraigados ladrones que viven al margen de la ley y que actúan en la frontera entre los Estados Unidos y México, se ven acorralados por unos cazadores de recompensas y el ejército méxicano. (FILMAFFINITY)

Imagen
Uno de los mejores westerns de todos los tiempos
Carlos Boyero: Diario El Mundo

Una película mítica y de importancia capital (...) una obra maestra de indecible amargura, de inolvidable lirismo
Miguel Ángel Palomo: Diario El País

Versión HD 1080p por roisiano
La película no necesita más presentaciones. Vamos a completar las opciones disponibles:

Ripeo con esta configuración:

Código: Seleccionar todo

"C:\x264.exe" --preset veryslow --tune film --crf 19.0 --level 4.1 --output "C:\mi_ripeo.mkv" "C:\mi_script.avs"
Imagen
Imagen
Imagen
Imagen
Imagen
Imagen

Código: Seleccionar todo

Format : Matroska 
Format version : Version 2 
File size : 8.77 GiB 
Duration : 2h 24mn 
Overall bit rate : 8 670 Kbps 
Movie name : The.Wild.Bunch.1969.BDRip.x264.1080p.AC3.mkv 
Encoded date : UTC 2012-08-21 10:52:07 
Writing application : mkvmerge v4.0.0 ('The Stars were mine') built on Jun 6 2010 16:18:42 
Writing library : libebml v1.0.0 + libmatroska v1.0.0 

Video 
ID : 1 
Format : AVC 
Format/Info : Advanced Video Codec 
Format profile : High@L4.1 
Format settings, CABAC : Yes 
Format settings, ReFrames : 5 frames 
Codec ID : V_MPEG4/ISO/AVC 
Duration : 2h 24mn 
Bit rate : 7 857 Kbps 
Width : 1 920 pixels 
Height : 792 pixels 
Display aspect ratio : 2.40:1 
Frame rate : 23.976 fps 
Color space : YUV 
Chroma subsampling : 4:2:0 
Bit depth : 8 bits 
Scan type : Progressive 
Bits/(Pixel*Frame) : 0.216 
Stream size : 7.95 GiB (91%) 
Writing library : x264 core 125 r2208 d9d2288 
Encoding settings : cabac=1 / ref=5 / deblock=1:-1:-1 / analyse=0x3:0x133 / me=umh / subme=10 / psy=1 / psy_rd=1.00:0.15 / mixed_ref=1 / me_range=24 / chroma_me=1 / trellis=2 / 8x8dct=1 / cqm=0 / deadzone=21,11 / fast_pskip=1 / chroma_qp_offset=-3 / threads=6 / lookahead_threads=1 / sliced_threads=0 / nr=0 / decimate=1 / interlaced=0 / bluray_compat=0 / constrained_intra=0 / bframes=8 / b_pyramid=2 / b_adapt=2 / b_bias=0 / direct=3 / weightb=1 / open_gop=0 / weightp=2 / keyint=250 / keyint_min=23 / scenecut=40 / intra_refresh=0 / rc_lookahead=60 / rc=crf / mbtree=1 / crf=19.0 / qcomp=0.60 / qpmin=0 / qpmax=69 / qpstep=4 / ip_ratio=1.40 / aq=1:1.00 
Language : English 
Default : No 
Forced : No 

Audio 
ID : 2 
Format : AC-3 
Format/Info : Audio Coding 3 
Mode extension : CM (complete main) 
Format settings, Endianness : Big 
Codec ID : A_AC3 
Duration : 2h 24mn 
Bit rate mode : Constant 
Bit rate : 640 Kbps 
Channel(s) : 6 channels 
Channel positions : Front: L C R, Side: L R, LFE 
Sampling rate : 48.0 KHz 
Bit depth : 16 bits 
Compression mode : Lossy 
Stream size : 663 MiB (7%) 
Language : English 
Default : No 
Forced : No 

Text #1 
ID : 3 
Format : UTF-8 
Codec ID : S_TEXT/UTF8 
Codec ID/Info : UTF-8 Plain Text 
Language : Spanish 
Default : No 
Forced : No 

Text #2 
ID : 4 
Format : UTF-8 
Codec ID : S_TEXT/UTF8 
Codec ID/Info : UTF-8 Plain Text 
Language : English 
Default : No 
Forced : No 

Text #3 
ID : 5 
Format : VobSub 
Muxing mode : zlib 
Codec ID : S_VOBSUB 
Codec ID/Info : The same subtitle format used on DVDs 
Language : Spanish 
Default : No 
Forced : No 

Text #4 
ID : 6 
Format : VobSub 
Muxing mode : zlib 
Codec ID : S_VOBSUB 
Codec ID/Info : The same subtitle format used on DVDs 
Language : English 
Default : No 
Forced : No 

Menu 
00:00:00.000 : en:00:00:00.000 
00:06:32.767 : en:00:06:32.767 
00:10:08.566 : en:00:10:08.566 
00:14:28.326 : en:00:14:28.326 
00:15:25.133 : en:00:15:25.133 
00:18:15.261 : en:00:18:15.261 
00:20:13.838 : en:00:20:13.838 
00:22:41.235 : en:00:22:41.235 
00:23:34.580 : en:00:23:34.580 
00:31:02.611 : en:00:31:02.611 
00:34:16.012 : en:00:34:16.012 
00:36:34.442 : en:00:36:34.442 
00:41:44.335 : en:00:41:44.335 
00:42:52.153 : en:00:42:52.153 
00:48:12.098 : en:00:48:12.098 
00:50:17.848 : en:00:50:17.848 
00:52:52.294 : en:00:52:52.294 
00:59:42.579 : en:00:59:42.579 
01:03:45.488 : en:01:03:45.488 
01:09:22.575 : en:01:09:22.575 
01:11:56.646 : en:01:11:56.646 
01:17:12.169 : en:01:17:12.169 
01:21:45.776 : en:01:21:45.776 
01:24:24.268 : en:01:24:24.268 
01:27:23.029 : en:01:27:23.029 
01:28:27.761 : en:01:28:27.761 
01:32:02.600 : en:01:32:02.600 
01:35:19.923 : en:01:35:19.923 
01:36:50.096 : en:01:36:50.096 
01:41:18.572 : en:01:41:18.572 
01:46:22.001 : en:01:46:22.001 
01:49:07.374 : en:01:49:07.374 
01:49:56.507 : en:01:49:56.507 
01:52:20.651 : en:01:52:20.651 
01:55:32.968 : en:01:55:32.968 
02:00:10.995 : en:02:00:10.995 
02:04:09.108 : en:02:04:09.108 
02:08:16.272 : en:02:08:16.272 
02:10:41.751 : en:02:10:41.751 
02:12:24.395 : en:02:12:24.395 
02:13:35.591 : en:02:13:35.591 
02:14:53.877 : en:02:14:53.877 
02:17:04.049 : en:02:17:04.049 
02:19:13.512 : en:02:19:13.512 
02:21:17.636 : en:02:21:17.636 
02:22:35.088 : en:02:22:35.088   

:arrow: The.Wild.Bunch.1969.BDRip.x264.1080p.AC3.mkv
(BDRip 1080p V.O., con subtítulos en español e inglés en el contenedor MKV)



Audio español gentileza de santi:
santi escribió:Bueno, pues he bajado por torrent un rip de la edición española, acabo además de ver la peli y la cadena de audio doblado sirve para este ripeo de Roisiano, así que la comparto por aquí por si hay interesados:

Grupo salvaje (1969).Doblaje spanish 1970 para Blu-Ray Warner mkv 8.77 GB.ac3


Versión HD 720p CHD
Spoiler: mostrar
duby escribió:Publicado en DivxPlanet por Clouddog
Imagen

Código: Seleccionar todo

 ±°°°°°°°°°°±°°°°°°°°°°°°°°°°°°°°°°°°°°°°°°°°°°°°°°°°°°°°°°°°°°°°°°°°°°°°°°°±±±±
°°°°°±°°°±°°°°°°°°°°°°°°°°°°°°°°°°°ÜÜ°°°° ÜÜ°°°°°°°°°°°°°°°°°°°°°°°°°°°°°°°°±±±
°°°°±²±°°°°°°°°°°°°°°°°°°°°°°°ÜܲÛÛÛÛ°°°°°ÛÛÛÛ²ÜÜ°°°°°°°°°°°°°°°°°°°°°°°°°°°°±±
°±±²²Û²²±±°°°°°°°°°°°°°°Üܲ°ÜÛÛÛÛÛÛÛ²°°°°°²ÛÛÛÛÛÛÛÜ°²ÜÜ°°°°°°°°°°°°°°°°°°°°°°°±
°°°°±²±°°°°°°°°°°°°°°°ÜÛÛÛÛ°°²ÛÛÛÛÛÝ°°°°°°°ÛÛÛÛÛÛ²°°ÛÛÛÛÜ°°°°°°°°°°°°°°°°°°°°°°
°°°°°±°°°°°°°°°°°°°°°ÛÛÛÛÛÛÛ°°ÛÛÛÛÛÝ°°°°°°°ÛÛÛÛÛÛ°°ÛÛÛÛÛÛÛ°°°°°°°°°°°°°°°°°°°°°
°°°°°°°±°°°°°°°°°°°ÜÛÛÛÛÛÛÛÛ²°ÛÛÛÛÛÝ°°°°°°°ÛÛÛÛÛÛ°²ÛÛÛÛÛÛÛÛÜ°°°°°°°°°°°°°°°°°°°
°°°±°°°°°°°°°°°°°°°ÛÛÛÛÛÛÛÛÛÛ°ÛÛÛÛÛÝ°°°°°°°ÛÛÛÛÛÛ°ÛÛÛÛÛÛÛÛÛÛ°°°°°°°°°°°°°°°°°°°
°°°°°°°°°°°°°°°°°°ÛÛÛÛÛß°°²ÛÛ°°ÛÛÛÛÝ°°°°°°°ÛÛÛÛÛ°°ÛÛÛÛÝßÛÛÛÛÛ°°°°°°°°°°°°°°°°°°
°°°°°°°°°°°°°°°°²ÛÛÛÛß°°°°°ßÛ²°ÛÛÛÛÝ°°°°°°°ÛÛÛÛÛ°ÞÛßÛÛÝ°°ßÛÛÛÛ²°°°°°°°°°°°°°°°°
°°°°°°°°°°°°°°°°ÛÛÛÛ°°°°°°°°ß°°²ÛÛÛÝ°°°°°°°ÛÛÛݲ°°ß²ÛÛÝ°°°°ÛÛÛÛ°°°°°°°°°°°°°°°°
°°°°°°°°°°°°°°°²ÛÛÛ°°°°°°°°°°°°°ÛÛÛÝ°°°°°°°ÛÛÛÝ°°°°±ÛÛÝ°°°°°ÛÛÛ²°°°°°°°°°°°°°°°
°°°°°°°°°°°°°°°ÛÛÛ²°°°°°°°°°°°°°ÛÛÛÛÜ°°°°°ÜÛÛÛÝ°°°°°ÛÛÝ°°°°°²ÛÛÛ°°°°°°°°°°°°°°°
°°°°°°°°°°°°°°ÛÛÛÝ°°°°°°°°°°°°°°ÛÛÛÛÛÛÛÛÛÛÛÛÛÛÝ°°°°°ÛÛÝ°°°°°°ÛÛÛÝ°°°°°°°°°°°°°°
°°°°°°°°°°°°°°ÛÛÛÝ°°°°°°°°°°°°°°ÛÛÛÛÛÛÛÛÛÛÛÛÛÛÝ°°°°°ÛÛÝ°°°°°°ÛÛÛÝ°°°°°°°°°°°°°°
°°°°°°°°°°°°°°ÛÛÛÝ°°°°°°°°°°°°°°ÛÛÛÛÛß°°°°²ÛÛÛÝ°°°°°ÛÛÝ°°°°°°ÛÛÛÝ°°°°°°°°°°°°°°
°°°°°°°°°°°°°°ÛÛÛÝ°°°°°°°°°°°°°°ÛÛÛÛ²°°°°°°ÛÛÛÝ°°°°°ÛÛÝ°°°°°°ÛÛÛÝ°°°°°°°±°°°°°°
°°°°°°°°°°°°°°ÛÛÛÝ°°°°°°°°°°°°°°ÛÛÛÝ°°°°°°°ÛÛÛÝ°°°°°ÛÛÝ°°°°°°ÛÛÛÝ°°°°±°°°°°°°°°
°°°°°°°°°°°°°°²ÛÛÛ²°°°°°°°°°°°°°ÛÛÛÝ°°°°°°°ÛÛÛÝ°°°°°ÛÛÝ°°°°°²ÛÛÛ²°°°°°°°±°°°°°°
°°°°°°°°°°°°°°°ÛÛÛÛ²°°°°°°°°°°°°ÛÛÛÝ°°°°°°°ÛÛÛÝ°°°°±ÛÛÝ°°°°²ÛÛÛÛ°°°°°°°°±°°°°°°
°°°°°°°°°°°°°°°°ÛÛÛÛÜ°°°°°°°Ü°°²ÛÛÛÛ²°°°°°²ÛÛÛÛ²°°ÜÞÛÛÝ°°°ÜÛÛÛÛ°°°°°°°°±²±°°°°°
°°°°°°°°°°°°°°°°ßÛÛÛÛÛ°°°°°ÜÛ²°ÛÛÛÛÛÛ°°°°°ÛÛÛÛÛÛ°ÞÛÛÛÛÝ°°ÛÛÛÛÛß°°°°°±±²²Û²²±±°°
°°°°°°°°°°°°°°°°°ßÛÛÛÛÛÜÜ°ÜÛÛ°°ÛÛÛÛÛÝ°°°°°ÛÛÛÛÛÛ°°ÛÛÛÛÝÜÛÛÛÛÛß°°°°°°°°°±²±°°°°°
°°°°°°°°°°°°°°°°°°ßÛÛÛÛÛÛÛÛÛÛ°°ÛÛÛÛÛÝ°°°°°ÛÛÛÛÛÛ°°ÛÛÛÛÛÛÛÛÛÛß°°°°°°°°°°°±°°°°°°
°°°°°°°°°°°°°°°°°°°°ÛÛÛÛÛÛÛÛ²°²ÛÛÛÛÛÝ°°°°°ÛÛÛÛÛÛ²°²ÛÛÛÛÛÛÛÛ°°°°°°°°°°°°±°°°°°°°
°°°°°°°°°°°°°°°°°°°°°²ÛÛÛÛÛÛ°°ÛÛÛÛÛÛÝ°°°°°ÛÛÛÛÛÛÛ°°ÛÛÛÛÛÛÛ°°°°°°°°°°°°°°°°±°°°°
°°°°°°°°°°°°°°°°°°°°°°ßÛÛÛÛ°°²ÛÛÛÛÛÛÝ°°°°°ÛÛÛÛÛÛÛ²°°ÛÛÛÛß°°°°°°°°°°°°±°°°°°°±°°
°°°°°°°°°°°°°°°°°°°°°°°°ßß²°ßÛÛÛÛÛÛÛÝ°°°°°ÛÛÛÛÛÛÛÛß°²ßß°°°°°°°°°°°°°°°°°°°°°°°°
°°°°°°°°°°°°°°°°°°°°°°°°°°°°°°ßßßÛÛÛß°°°°°ß²ÛÛßßß°°°°°°°°°°°°°°°°°°°°°°°°°°°°°°
°°°°°°°°°°°°°°°°°°°°°°°°°°°°°°°°°°°°°°°°°°°°°°°°°°°°°°°°°°°°°°°°°°°°°°°°°°°°°°°
°°°°±±±±±±±±±±±±±±±±±±±±±±±±±±±±±±±±±±±±±±±±±±±±±±±±±±±±±±±±±±±±±±±±±±±±±±±±±±±
°°°±±±±±±±±±±±±±±±±±±±±±±±±±Classic High Definition±±±±±±±±±±±±±±±±±±±±±±±±±±±
°°±±±±±±±±±±±±±±±±±±±±±±±±±±±±±±±±±±±±±±±±±±±±±±±±±±±±±±±±±±±±±±±±±±±±±±±±±±±
°±±±±±±±±±±±±±±±±±±±±±±±±±±±±±±Proudly Presents±±±±±±±±±±±±±±±±±±±±±±±±±±±±±
±±±±±±±±±±±±±±±±±±±±±±±±±±±±±±±±±±±±±±±±±±±±±±±±±±±±±±±±±±±±±±±±±±±±±±±±±±±

                The.Wild.Bunch.1969.x264.720p.AC3.HD.DVDRiP-CHD

°±°±°±°°°°°°°°°°°°°°°°°°°°°°°°°°°°°°°°°°°°°°°°°°°°°°°°°°°°°°°°°°°°°°°°°°°°°°°°±
±°±°±°°°°°°°°°°°°°°°°°°°°°°°°°°°°°°°°°°°°°°°°°°°°°°°°°°°°°°°°°°°°°°°°°°°°°°°°±°
°±°±°°°°°°°RELEASE°°°°RELEASE DATE....: 05/22/2008°°°°°°°°°°°°°°°°°°°°°°°°°°±°±
±°±°°°°°°°°°°°°°°°°°°°THEATRE DATE....: 08/07/1969°°°°°°°°°°°°°°°°°°°°°°°°°±°±°
°±°°°°°°°iNFORMATiON°°
±°°°°°°°°°°°°°°°°°°°°°iMDB URL........: http://www.imdb.com/title/tt0065214/
°°°°°°°°°°°°°°°°°°°°°°iMDB RATiNG.....: 8.2/10 (21,534 votes)
°°°°°°°°°°°°°°°°°°°°°°GENRE...........: Action / Drama / Western
°°°°°°°°°°°°°°°°°°°°°°
°°°°°°°°°°°°°°°°°°°°°°SOURCE TYPE.....: HD DVD
°°°°°°°°°°°°°°°°°°°°°°ViDEO BiTRATE...: x264 r851 L4.1 @ 3863Kbps
°°°°°°°°°°°°°°°°°°°°°°FRAME RATE......: 23.976 fps
°°°°°°°°°°°°°°°°°°°°°°AUDiO BiTRATE...: AC3 5.1 @ 448Kbps
°°°°°°°°°°°°°°°°°°°°°°RUNTiME.........: 145 mins
°°°°°°°°°°°°°°°°°°°°°°ASPECT RATiO....: 2.42 : 1
°°°°°°°°°°°°°°°°°°°°°°RESOLUTiON......: 1280 x 528
°°°°°°°°°°°°°°°°°°°°°°LANGUAGE........: German / English / Spanish
°°°°°°°°°°°°°°°°°°°°°°SUBTiTLES.......: Chinese
°°°°°°°°°°°°°°°°°°°°°°FilE SiZE.......: 4,576,448 KB
°°°°°°°°°°°°°°°°°°°°°°
°°°°°°°°°°°°°°°°°°°°°°RECODE RiPPER...: ilovepict@CHD
°°°°°°°°°°°°°°°°°°°°°°°°°°°°°°°°°°°°°°°°°°°°°°°°°°°°°°°°°°°°°°°°°°°°°°°°°°°°°°±
°°°°°°°°°°°°°°°°°°°°°°°°°°°°°°°°°°°°°°°°°°°°°°°°°°°°°°°°°°°°°°°°°°°°°°°°°°°°°±°
°°°°°°°°°PLOT°SUMMARY°°°°°°°°°°°°°°°°°°°°°°°°°°°°°°°°°°°°°°°°°°°°°°°°°°°°°°°±°±
°°°°°°°°°°°°°°°°°°°°°°°°°°°°°°°°°°°°°°°°°°°°°°°°°°°°°°°°°°°°°°°°°°°°°°°°°°°±°±°
°°°°°°°°°°°°°°°°°°°°°°°°°°°°°°°°°°°°°°°°°°°°°°°°°°°°°°°°°°°°°°°°°°°°°°°°°°±°±°±
°°°°°°°°°
°°°°°°°°°    A few months before World War I, an aging band of outlaws led
°°°°°°°°°    by Pike Bishop rob a Texas bank intent on using the money to
°°°°°°°°°    retire. When the robbery goes wrong, the gang is forced to
°°°°°°°°°    flee to Mexico with Bishop's reformed ex-partner, Deke
°°°°°°°°°    Thornton, in hot pursuit. With nothing to show for the failed
°°°°°°°°°    robbery, Bishop's gang agrees to steal a shipment of guns for
°°°°°°°°°    General "Mapache" Juerta, to restore their fortunes. With
°°°°°°°°°    Thornton closing in, and their association with the evil
°°°°°°°°°    Juerta trying their conscience, Bishop and co. prepare for
°°°°°°°°°    their lawless past to catch up with them.
°°°°°°°°°
°°°°°°°°°°°°°°°°°°°°°°°°°°°°°°°°°°°°°°°°°°°°°°°°°°°°°°°°°°°°°°°°°°°°°°°°°°°°°°±
°°°°°°°°°°°°°°°°°°°°°°°°°°°°°°°°°°°°°°°°°°°°°°°°°°°°°°°°°°°°°°°°°°°°°°°°°°°°°±°
°°°°°°°°°CAST°OVERViEW°°°°°°°°°°°°°°°°°°°°°°°°°°°°°°°°°°°°°°°°°°°°°°°°°°°°°°±°±
°°°°°°°°°°°°°°°°°°°°°°°°°°°°°°°°°°°°°°°°°°°°°°°°°°°°°°°°°°°°°°°°°°°°°°°°°°°±°±°
°°°°°°°°°°°°°°°°°°°°°°°°°°°°°°°°°°°°°°°°°°°°°°°°°°°°°°°°°°°°°°°°°°°°°°°°°°±°±°±
°°°°°°°°°
°°°°°°°°°    William Holden .................................. Pike Bishop
°°°°°°°°°    Ernest Borgnine .............................. Dutch Engstrom
°°°°°°°°°    Robert Ryan ................................... Deke Thornton
°°°°°°°°°    Edmond O'Brien ................................ Freddie Sykes
°°°°°°°°°    Warren Oates ..................................... Lyle Gorch
°°°°°°°°°    Jaime S nchez ...................... Angel (as Jaime Sanchez)
°°°°°°°°°    Ben Johnson .................................... Tector Gorch
°°°°°°°°°    Emilio Fern ndez ......... Gen. Mapache (as Emilio Fernandez)
°°°°°°°°°    Strother Martin ...................................... Coffer
°°°°°°°°°    L.Q. Jones .............................................. T.C
°°°°°°°°°    Albert Dekker .................................. Pat Harrigan
°°°°°°°°°    Bo Hopkins ............................. Clarence 'Crazy' Lee
°°°°°°°°°    Dub Taylor ................................... Rev. Wainscoat
°°°°°°°°°    Paul Harper ............................................ Ross
°°°°°°°°°    Jorge Russek ................................... Maj. Zamorra
°°°°°°°°°
°°°°°°°°°°°°°°°°°°°°°°°°°°°°°°°°°°°°°°°°°°°°°°°°°°°°°°°°°°°°°°°°°°°°°°°°°°°°°°±
°°°°°°°°°°°°°°°°°°°°°°°°°°°°°°°°°°°°°°°°°°°°°°°°°°°°°°°°°°°°°°°°°°°°°°°°°°°°°±°
°°°°°°°°°RiPPER's°NOTES°°°°°°°°°°°°°°°°°°°°°°°°°°°°°°°°°°°°°°°°°°°°°°°°°°°°°±°±
°°°°°°°°°°°°°°°°°°°°°°°°°°°°°°°°°°°°°°°°°°°°°°°°°°°°°°°°°°°°°°°°°°°°°°°°°°°±°±°
°°°°°°°°°°°°°°°°°°°°°°°°°°°°°°°°°°°°°°°°°°°°°°°°°°°°°°°°°°°°°°°°°°°°°°°°°°±°±°±
°°°°°°°°°
°°°°°°°°°
°°°°°°°°°°°°°°°°°°°°°°°°°°°°°°°°°°°°°°°°°°°°°°°°°°°°°°°°°°°°°°°°°°°°°°°°°°°°°°°
°°°°°°°°°GROUP°NEWS°°°°°°°°°°°°°°°°°°°°°°°°°°°°°°°°°°°°°°°°°°°°°°°°°°°°°°°°°°°°
°°°°°°°°°°°°°°°°°°°°°°°°°°°°°°°°°°°°°°°°°°°°°°°°°°°°°°°°°°°°°°°°°°°°°°°°°°°°°°°
°°°°°°°°°°°°°°°°°°°°°°°°°°°°°°°°°°°°°°°°°°°°°°°°°°°°°°°°°°°°°°°°°°°°°°°°°°°°°°°
°°°°°°°°°WANNA JOiN OUR GROUP? WE NEED:°°°°°°°°°°°°°°°°°°°°°°°°°°°°°°°°°°°°°°°°
°°°°°°°°°°°°°°°°°°°°°°°°°°°°°°°°°°°°°°°°°°°°°°°°°°°°°°°°°°°°°°°°°°°°°°°°°°°°°°°
°°°°°°°°°- TS streams of any classic movies and IMAX,BBC,Discovery etc°°°°°°°°°
°°°°°°°°°- 100M+ legit FTP for our exclusive usage°°°°°°°°°°°°°°°°°°°°°°°°°°°°°
°°°°°°°°°- Skillful ripper°°°°°°°°°°°°°°°°°°°°°°°°°°°°°°°°°°°°°°°°°°°°°°°°°°°°°
°°°°°°°°°°°°°°°°°°°°°°°°°°°°°°°°°°°°°°°°°°°°°°°°°°°°°°°°°°°°°°°°°°°°°°°°°°°°°°°
°°°°°°°°°°°°°°°°°°°°°°°°°°°°°°°°°°°°°°°°°°°°°°°°°°°°°°°°°°°°°°°°°°°°°°°°°°°°°°°
°°°°°°°°°WELCOME TO CONTACT US:°°°°°°°°°°°°°°°°°°°°°°°°°°°°°°°°°°°°°°°°°°°°°°°°
°°°°°°°°°°°°°°°°°°°°°°°°°°°°°°°°°°°°°°°°°°°°°°°°°°°°°°°°°°°°°°°°°°°°°°°°°°°°°°°
°°°°°°°°°EMAil: CHDTV.net@GMAiL.COM°°°°°°°°°°°°°°°°°°°°°°°°°°°°°°°°°°°°°°°°°°°°
°°°°°°°°°BBS: http://www.chdtv.net°°°°°°°°°°°°°°°°°°°°°°°°°°°°°°°°°°°°°°°°°°°°°
°°°°°°°°°°°°°°°°°°°°°°°°°°°°°°°°°°°°°°°°°°°°°°°°°°°°°°°°°°°°°°°°°°°°°°°°°°°°°°°
°°°°°°°°°°°°°°°°°°°°°°°°°°°°°°°°°°°°°°°°°°°°°°°°°°°°°°°°°°°°°°°°°°°°°°°°°°°°°°°
°°°°°°°°°°°°°°°°°°°°°°°°°°°°°°°°°°°°°°°°°°°°°°°°°°°°°°°°°°°°°°°°°°°°°°°°°°°°°°°
°°°°°°°°°GREETiNGS°°°°°°°°°°°°°°°°°°°°°°°°°°°°°°°°°°°°°°°°°°°°°°°°°°°°°°°°°°°°°
°°°°°°°°°°°°°°°°°°°°°°°°°°°°°°°°°°°°°°°°°°°°°°°°°°°°°°°°°°°°°°°°°°°°°°°°°°°°°°±
°°°°°°°°°°°°°°°°°°°°°°°°°°°°°°°°°°°°°°°°°°°°°°°°°°°°°°°°°°°°°°°°°°°°°°°°°°°°°±°
°°°°°°°°°°°°°°°°°°°°°°°°°°°°°°°°°°°°°°°°°°°°°°°°°°°°°°°°°°°°°°°°°°°°°°°°°°°°±°±
°±°±°±°±±±±±±±±±±±±±±±±±±±±±±±±±±±±±±±±±±±±±±±±±±±±±±±±±±±±±±±±±±±±±±±±±±±±±°±°
±°±°±°±±±±±±±±±±±±±±±±±±±±±±±±±±±±±±±±±±±±±±±±±±±±±±±±±±±±±±±±±±±±±±±±±±±±±°±°±
°±°±°±±±±±±±±±±±±±±±±±±±±±±±±±WE'll DO BETTER !!!±±±±±±±±±±±±±±±±±±±±±±±±±°±°±°
±°±°±±±±±±±±±±±±±±±±±±±±±±±±±±±±±±±±±±±±±±±±±±±±±±±±±±±±±±±±±±±±±±±±±±±±±°±°±°±
°±°±±±±±±±±±±±±±±±±±±±±±±±±±±±±±±±±±±±±±±±±±±±±±±±±±±±±±±±±±±±±±±±±±±±±±°±°±°±°
                  
ImagenImagenImagen
ImagenImagenImagen
ImagenImagenImagen

Elink:
The.Wild.Bunch.1969.DC.HDDVDRip.720p.x264.AC3-CHD.mkv

Subs en Opensubtitles:
Español | Inglés
Sincro cortesía de Shoo
Otras versiones en DXC:
DVDRip Dual + Comentarios

Una de las mejores películas de la historia del cine que vale la pena tener con la mejor calidad posible.
Última edición por duby el Dom 02 Mar, 2014 21:12, editado 8 veces en total.

Avatar de Usuario
kimkiduk
Mensajes: 1170
Registrado: Jue 27 Ene, 2005 01:00
Ubicación: Lost in La Mancha

Re: The Wild Bunch (Sam Peckinpah, 1969) HDDVD VOSE

Mensaje por kimkiduk » Mié 07 Ene, 2009 22:56

Me quedo con la copia...
Gracias por el aviso Duby


Avatar de Usuario
roisiano
Polemista nato
Mensajes: 5658
Registrado: Dom 17 Jul, 2005 02:00
Ubicación: Al final del río

Re: The Wild Bunch (Sam Peckinpah, 1969) HDDVD VOSE

Mensaje por roisiano » Jue 08 Ene, 2009 19:40

Ahí vamos. Gracias a los responsables.
Florentino, fíchame.
Por 6.000 € netos mensuales te convierto en el mejor presidente de la historia.

Avatar de Usuario
birdmanradio
Mensajes: 933
Registrado: Vie 18 May, 2007 11:26

Re: The Wild Bunch (Sam Peckinpah, 1969) HDDVD VOSE

Mensaje por birdmanradio » Vie 29 Abr, 2011 11:40

Gracias por aportarnos esta gan pelicula con una calidad HD y encima en mkv!! :plas: :plas: :plas:

Avatar de Usuario
roisiano
Polemista nato
Mensajes: 5658
Registrado: Dom 17 Jul, 2005 02:00
Ubicación: Al final del río

The Wild Bunch (Sam Peckinpah, 1969) HDRip 1080p VOSE

Mensaje por roisiano » Mar 21 Ago, 2012 13:48

La película no necesita más presentaciones. Vamos a completar las opciones disponibles:

Ripeo con esta configuración:

Código: Seleccionar todo

"C:\x264.exe" --preset veryslow --tune film --crf 19.0 --level 4.1 --output "C:\mi_ripeo.mkv" "C:\mi_script.avs"
Imagen
Imagen
Imagen
Imagen
Imagen
Imagen

Código: Seleccionar todo

Format : Matroska 
Format version : Version 2 
File size : 8.77 GiB 
Duration : 2h 24mn 
Overall bit rate : 8 670 Kbps 
Movie name : The.Wild.Bunch.1969.BDRip.x264.1080p.AC3.mkv 
Encoded date : UTC 2012-08-21 10:52:07 
Writing application : mkvmerge v4.0.0 ('The Stars were mine') built on Jun 6 2010 16:18:42 
Writing library : libebml v1.0.0 + libmatroska v1.0.0 

Video 
ID : 1 
Format : AVC 
Format/Info : Advanced Video Codec 
Format profile : High@L4.1 
Format settings, CABAC : Yes 
Format settings, ReFrames : 5 frames 
Codec ID : V_MPEG4/ISO/AVC 
Duration : 2h 24mn 
Bit rate : 7 857 Kbps 
Width : 1 920 pixels 
Height : 792 pixels 
Display aspect ratio : 2.40:1 
Frame rate : 23.976 fps 
Color space : YUV 
Chroma subsampling : 4:2:0 
Bit depth : 8 bits 
Scan type : Progressive 
Bits/(Pixel*Frame) : 0.216 
Stream size : 7.95 GiB (91%) 
Writing library : x264 core 125 r2208 d9d2288 
Encoding settings : cabac=1 / ref=5 / deblock=1:-1:-1 / analyse=0x3:0x133 / me=umh / subme=10 / psy=1 / psy_rd=1.00:0.15 / mixed_ref=1 / me_range=24 / chroma_me=1 / trellis=2 / 8x8dct=1 / cqm=0 / deadzone=21,11 / fast_pskip=1 / chroma_qp_offset=-3 / threads=6 / lookahead_threads=1 / sliced_threads=0 / nr=0 / decimate=1 / interlaced=0 / bluray_compat=0 / constrained_intra=0 / bframes=8 / b_pyramid=2 / b_adapt=2 / b_bias=0 / direct=3 / weightb=1 / open_gop=0 / weightp=2 / keyint=250 / keyint_min=23 / scenecut=40 / intra_refresh=0 / rc_lookahead=60 / rc=crf / mbtree=1 / crf=19.0 / qcomp=0.60 / qpmin=0 / qpmax=69 / qpstep=4 / ip_ratio=1.40 / aq=1:1.00 
Language : English 
Default : No 
Forced : No 

Audio 
ID : 2 
Format : AC-3 
Format/Info : Audio Coding 3 
Mode extension : CM (complete main) 
Format settings, Endianness : Big 
Codec ID : A_AC3 
Duration : 2h 24mn 
Bit rate mode : Constant 
Bit rate : 640 Kbps 
Channel(s) : 6 channels 
Channel positions : Front: L C R, Side: L R, LFE 
Sampling rate : 48.0 KHz 
Bit depth : 16 bits 
Compression mode : Lossy 
Stream size : 663 MiB (7%) 
Language : English 
Default : No 
Forced : No 

Text #1 
ID : 3 
Format : UTF-8 
Codec ID : S_TEXT/UTF8 
Codec ID/Info : UTF-8 Plain Text 
Language : Spanish 
Default : No 
Forced : No 

Text #2 
ID : 4 
Format : UTF-8 
Codec ID : S_TEXT/UTF8 
Codec ID/Info : UTF-8 Plain Text 
Language : English 
Default : No 
Forced : No 

Text #3 
ID : 5 
Format : VobSub 
Muxing mode : zlib 
Codec ID : S_VOBSUB 
Codec ID/Info : The same subtitle format used on DVDs 
Language : Spanish 
Default : No 
Forced : No 

Text #4 
ID : 6 
Format : VobSub 
Muxing mode : zlib 
Codec ID : S_VOBSUB 
Codec ID/Info : The same subtitle format used on DVDs 
Language : English 
Default : No 
Forced : No 

Menu 
00:00:00.000 : en:00:00:00.000 
00:06:32.767 : en:00:06:32.767 
00:10:08.566 : en:00:10:08.566 
00:14:28.326 : en:00:14:28.326 
00:15:25.133 : en:00:15:25.133 
00:18:15.261 : en:00:18:15.261 
00:20:13.838 : en:00:20:13.838 
00:22:41.235 : en:00:22:41.235 
00:23:34.580 : en:00:23:34.580 
00:31:02.611 : en:00:31:02.611 
00:34:16.012 : en:00:34:16.012 
00:36:34.442 : en:00:36:34.442 
00:41:44.335 : en:00:41:44.335 
00:42:52.153 : en:00:42:52.153 
00:48:12.098 : en:00:48:12.098 
00:50:17.848 : en:00:50:17.848 
00:52:52.294 : en:00:52:52.294 
00:59:42.579 : en:00:59:42.579 
01:03:45.488 : en:01:03:45.488 
01:09:22.575 : en:01:09:22.575 
01:11:56.646 : en:01:11:56.646 
01:17:12.169 : en:01:17:12.169 
01:21:45.776 : en:01:21:45.776 
01:24:24.268 : en:01:24:24.268 
01:27:23.029 : en:01:27:23.029 
01:28:27.761 : en:01:28:27.761 
01:32:02.600 : en:01:32:02.600 
01:35:19.923 : en:01:35:19.923 
01:36:50.096 : en:01:36:50.096 
01:41:18.572 : en:01:41:18.572 
01:46:22.001 : en:01:46:22.001 
01:49:07.374 : en:01:49:07.374 
01:49:56.507 : en:01:49:56.507 
01:52:20.651 : en:01:52:20.651 
01:55:32.968 : en:01:55:32.968 
02:00:10.995 : en:02:00:10.995 
02:04:09.108 : en:02:04:09.108 
02:08:16.272 : en:02:08:16.272 
02:10:41.751 : en:02:10:41.751 
02:12:24.395 : en:02:12:24.395 
02:13:35.591 : en:02:13:35.591 
02:14:53.877 : en:02:14:53.877 
02:17:04.049 : en:02:17:04.049 
02:19:13.512 : en:02:19:13.512 
02:21:17.636 : en:02:21:17.636 
02:22:35.088 : en:02:22:35.088   

:arrow: The.Wild.Bunch.1969.BDRip.x264.1080p.AC3.mkv (BDRip 1080p V.O., con subtítulos en español e inglés en el contenedor MKV)


----------------------------------------------------

Imagen Imagen

Web oficial del codec x264 (inglés) | Web en español sobre el codec x264
Manual de ripeo con x264 en línea de comandos (español) | Parámetros de codificación (inglés)
Contenedor Matroska (español) | Matroska en wikipedia (español): software de PC compatible, etc.
MKVToolnix, herramientas de edición para matroska (inglés) | Añadir cadenas de audio o subtítulos con MKVToolnix (español)
MKVExtractGui | Manual de extracción de cadenas de audio/vídeo/subtítulos en MKV (español)
Florentino, fíchame.
Por 6.000 € netos mensuales te convierto en el mejor presidente de la historia.

Avatar de Usuario
duby
Mensajes: 1442
Registrado: Mié 04 Feb, 2004 01:00

Re: The Wild Bunch (Sam Peckinpah, 1969) HD 1080p VOSE

Mensaje por duby » Mar 21 Ago, 2012 14:20

Actualizado el post principal y, por supuesto, pinchada esta joya. Es mi peli favorita.

Muchas gracias roisiano.

ratman
Mensajes: 44
Registrado: Mié 22 Jun, 2011 20:22

Re: The Wild Bunch (Sam Peckinpah, 1969) HD 1080/720p VOSE

Mensaje por ratman » Mar 21 Ago, 2012 22:14

Muchas gracias roisiano, yo también me apunto.

Avatar de Usuario
duby
Mensajes: 1442
Registrado: Mié 04 Feb, 2004 01:00

Re: The Wild Bunch (Sam Peckinpah, 1969) HD 1080/720p VOSE

Mensaje por duby » Mié 22 Ago, 2012 12:46

Ha bajado rapidísimo como siempre. Calidad de imagen, como esperaba, de lujo.
He empezado a ver la peli con los subs en formato vobsub que por lo visto son en español de Amèrica (La pandilla salvaje) y mucho mejor los que están en formato srt.

Reiterar mi agradecimiento. Saludos.

Avatar de Usuario
Dardo
Arrow Thrower Clown
Mensajes: 16540
Registrado: Dom 19 Oct, 2003 02:00
Ubicación: Entre Encinas y Dolomías

Re: The Wild Bunch (Sam Peckinpah, 1969) HD 1080/720p VOSE

Mensaje por Dardo » Sab 01 Sep, 2012 13:19

Obligado este 1080p.

Gracias Roisiano

Avatar de Usuario
Cirlot
Marxista, por Karl y Groucho
DXC Republican Clown
Mensajes: 4192
Registrado: Jue 05 Ago, 2004 02:00
Ubicación: Level 5

Re: The Wild Bunch (Sam Peckinpah, 1969) HD 1080/720p VOSE

Mensaje por Cirlot » Jue 31 Ene, 2013 03:26

No sus vayáis todos, que yo también quiero un HDripio. Gracias, roisiano. Me llevo el tuyo, que tiene más colorines.
Salud, comas, clowns y República


Avatar de Usuario
Forrest Gump
Mensajes: 1551
Registrado: Vie 18 May, 2007 18:06
Ubicación: Zihuatanejo

Re: The Wild Bunch (Sam Peckinpah, 1969) HD 1080/720p VOSE

Mensaje por Forrest Gump » Mié 01 May, 2013 07:18

Se me había pasado. ¡Pinchado queda!
¡¡¡Muchas gracias, roisiano!!! :plas: :plas: :plas:

Bienvenidas serán unas fuentes más. :wink:
Made it, Ma, top of the world!

Avatar de Usuario
Dardo
Arrow Thrower Clown
Mensajes: 16540
Registrado: Dom 19 Oct, 2003 02:00
Ubicación: Entre Encinas y Dolomías

Re: The Wild Bunch (Sam Peckinpah, 1969) HD 1080/720p VOSE

Mensaje por Dardo » Mié 01 May, 2013 11:38

Forrest Gump escribió:Bienvenidas serán unas fuentes más. :wink:
Creo que ya no estás solito ... asi que ¡corre Forrest, corre! :wink:

Antígono
Mensajes: 547
Registrado: Vie 01 Mar, 2013 18:59

Re: The Wild Bunch (Sam Peckinpah, 1969) HD 1080/720p VOSE

Mensaje por Antígono » Jue 13 Jun, 2013 23:29

Gracias Roisiano, me pongo con ella que hace tiempo que la tengo pendiente.

miguelrocco
Mensajes: 35
Registrado: Mar 19 Jul, 2011 01:20

Re: The Wild Bunch (Sam Peckinpah, 1969) HD 1080/720p VOSE

Mensaje por miguelrocco » Vie 14 Jun, 2013 04:00

muchas gracias !!!!

Avatar de Usuario
sumidoiro
En busca de la buena distancia
Mensajes: 323
Registrado: Vie 18 May, 2007 20:49
Ubicación: Quebranto (pasaba por aquí...)

Re: The Wild Bunch (Sam Peckinpah, 1969) HD 1080/720p VOSE

Mensaje por sumidoiro » Lun 12 Ago, 2013 22:28

Muchas gracias, roisiano.

Saúdos.

santi
Mensajes: 1045
Registrado: Vie 17 Ene, 2003 01:00

Re: The Wild Bunch (Sam Peckinpah, 1969) HD 1080/720p VOSE

Mensaje por santi » Dom 02 Mar, 2014 20:28

Bueno, pues he bajado por torrent un rip de la edición española, acabo además de ver la peli y la cadena de audio doblado sirve para este ripeo de Roisiano, así que la comparto por aquí por si hay interesados:

Grupo salvaje (1969).Doblaje spanish 1970 para Blu-Ray Warner mkv 8.77 GB.ac3

Bonus: :sonrisa: Una opinión de las más votadas en filmaffinity (contiene spoilers)
CREPÚSCULO RABIOSO
11 de Octubre de 2009 41 de 45 usuarios han encontrado esta crítica útil.
En el inicio hay un toque a lo Buñuel, quien solía insertar imágenes de animales como metáfora del comportamiento humano: unos escorpiones son entregados a una masa de hormigas rojas por unos niños que sonríen con maligno regocijo.

La película muestra un hormiguero humano, un caos de grupos relacionándose con violencia extrema:
Bandidos disfrazados con uniformes de agentes de la ley.
Agentes de la ley de paisano, actuando como cazarrecompensas y bandidos.
Ciudadanos de clase media, piadosos y antialcohólicos, acribillados por el fuego cruzado.
Los niños que, entre juegos con alacranes a los que añaden fuego, son espectadores de todo y se empapan de ello.
El ejército regular, ridiculizado en su despliegue de torpezas.
El ejército de opereta del general Mapache y sus grotescos asesores prusianos.
Los indios autóctonos: un poblado y los resistentes ocultos en las montañas, grupo éste tratado con simpatía por Peckinpah (de origen indio, como es sabido).

Si la refriega inicial, con la consiguiente matanza, alcanza brutales cotas de violencia, salpicada de detalles crueles, la escena del duelo final, cuatro contra todos, bate de largo el récord que ostentaba “Bonnie and Clyde”. Es un larguísimo final, estilizado mediante un montaje amplificador, a base de ralentizaciones, congelaciones y repeticiones, para mostrar como una danza macabra las caídas de esos cuerpos reventados a balazos y descosidos, por cuyos rotos brotan chorros de sangre.
Un festín para los buitres.

Entre matanza y matanza se suceden rituales del whisky, risotadas estruendosas, visitas al burdel, espectacular voladura de un puente, bellos paisajes fronterizos, todo sobre un trasfondo —recurrente en el director— de lealtad traicionada: dos forajidos veteranos, que un día fueron inseparables y ahora se tiran a matar (sobresalientes William Holden y Robert Ryan).

Si la época de los últimos bandidos se canta aquí con una poesía áspera y tremenda, son en cambio profundamente líricas las breves escenas del abandono del poblado indio, acompañadas de una canción coral y melancólica que llega bien adentro, escenas que significativamente se repiten como colofón.
Todo lo demás es rabia. Rabia en forma de cine.
Archilupo

Avatar de Usuario
Coursodon
Mensajes: 2224
Registrado: Vie 15 Jul, 2005 02:00
Ubicación: Extremadura

Re: The Wild Bunch (Sam Peckinpah, 1969) HD 1080/720p VOSE + AE

Mensaje por Coursodon » Lun 03 Mar, 2014 11:01

Me la llevo, gracias.
It makes no difference what men think about war, said the Judge. War endures... War was always here. Before man was, War waited...
Blood Meridian - Cormac McCarthy.

Avatar de Usuario
Palahniuk
What a day, what a lovely day!
Mensajes: 3885
Registrado: Vie 09 Jun, 2006 23:07
Ubicación: Vuelo 2039

Re: The Wild Bunch (Sam Peckinpah, 1969) HD 1080/720p VOSE + AE

Mensaje por Palahniuk » Jue 06 Mar, 2014 22:48

En el RoisianoRip... ¿Cuales son los subtitulos en castellano ibérico? :mrgreen:
Imagen

Responder