Todos eran mis hijos (Irving Reis, 1948) VHSRip VE | SATRip VO + AE

Publica y encuentra enlaces p2p de filmes hasta 1980 en esta sección.
Responder
Avatar de Usuario
flomer
Mensajes: 432
Registrado: Mié 11 Jun, 2003 02:00

Todos eran mis hijos (Irving Reis, 1948) VHSRip VE | SATRip VO + AE

Mensaje por flomer » Mar 14 Ago, 2007 20:07

Hola amigos. Hoy quiero poner a compartir este drama de Irving Reis, basado en una obra teatral de Arthur Miller, protagonizada nada menos que por Edward G. Robinson y Burt Lancaster. Que la disfrutéis.

Todos eran mis hijos (All my sons.Irving Reis. 1948) Vhsrip.español

Imagen

Director: Irving Reis

Guión:
Chester Erskine
Arthur Miller

Intérpretes:
Edward G. Robinson
Burt Lancaster
Mady Christians
Louisa Horton
Howard Duff
Frank Conroy
Lloyd Gough
Arlene Francis
Harry Morgan
Elisabeth Fraser

Argumento:
una desgarradora historia acerca de un hombre que se enriquece vendiendo piezas defectuosas a la aviación norteamericana durante la II Guerra Mundial, provocando muchos accidentes mortales. El tema de la miseria moral, una constante milleriana, aparece aquí sin ambages ni circunloquios.

Imagen[img]http:150:126]http://img527.imageshack.us/img527/5158 ... xk0.th.jpg[/img]Imagen
ImagenImagen

Name.........: Todos eran mis hijos (Irving Reis. 1948) Vhsrip.español.avi
Filesize.....: 700 MB (or 716,842 KB or 734,046,208 bytes)
Runtime......: 01:29:59 (134,976 fr)
Video Codec..: XviD
Video Bitrate: 955 kb/s
Audio Codec..: 0x0055(MP3) ID'd as MPEG-1 Layer 3
Audio Bitrate: 128 kb/s (64/ch, stereo) CBR
Frame Size...: 432x320 (1.35:1) [=27:20]

Todos eran mis hijos (Irving Reis. 1948) Vhsrip.español.avi

Un saludo y gracias por compartir.
*********************************
All My Sons SATRip VO + AE

Imagen

All My Sons
(Todos eran mis hijos).
(Usa, 1948) [B/N, 95 m.].

Dirección: Irving Reis.
IMDb / FilmAffinitty

Reparto: Edward G. Robinson, Burt Lancaster, Mady Christians, Louisa Horton, Howard Duff, Frank Conroy, Lloyd Gough, Arlene Francis

Sinopsis: Joe Keller es un exitoso hombre de negocios con un pasado que le atormenta: durante la II Guerra Mundial se benefició de un lucrativo contrato con el ejército. Presionado por las prisas, Joe entregó en un pedido un avión aun sabiendo que tenía elementos defectuosos. El avión sufrió un trágico accidente en el que murieron 21 hombres... (FILMAFFINITY)
Datos Técnicos:

Código: Seleccionar todo

General
Complete name                    : All My Sons (1948) E.G-rob, B.Lancaster TVrip (daimyo).avi
Format                           : AVI
Format/Info                      : Audio Video Interleave
File size                        : 698 MiB
Duration                         : 1h 33mn
Overall bit rate                 : 1 038 Kbps

Video
ID                               : 0
Format                           : MPEG-4 Visual
Format profile                   : Advanced Simple@L5
Format settings, BVOP            : Yes
Format settings, QPel            : No
Format settings, GMC             : No warppoints
Format settings, Matrix          : Default (H.263)
Codec ID                         : XVID
Codec ID/Hint                    : XviD
Duration                         : 1h 33mn
Bit rate                         : 983 Kbps
Width                            : 624 pixels
Height                           : 464 pixels
Display aspect ratio             : 4:3
Frame rate                       : 23.976 fps
Color space                      : YUV
Chroma subsampling               : 4:2:0
Bit depth                        : 8 bits
Scan type                        : Progressive
Bits/(Pixel*Frame)               : 0.142
Stream size                      : 661 MiB (95%)
Writing library                  : XviD 1.2.0SMP (UTC 2006-01-08)

Audio
ID                               : 1
Format                           : MPEG Audio
Format version                   : Version 1
Format profile                   : Layer 3
Codec ID                         : 55
Codec ID/Hint                    : MP3
Duration                         : 1h 33mn
Bit rate mode                    : Variable
Bit rate                         : 45.6 Kbps
Nominal bit rate                 : 48.0 Kbps
Channel(s)                       : 1 channel
Sampling rate                    : 32.0 KHz
Stream size                      : 30.6 MiB (4%)
Alignment                        : Aligned on interleaves
Interleave, duration             : 36 ms (0.86 video frame)
Interleave, preload duration     : 569 ms
Writing library                  : LAME3.97b
Encoding settings                : -m m -V 4 -q 2 -lowpass 11.3 --abr 48
Capturas

Imagen
Imagen
Imagen
Imagen
Imagen

SATRip VO

All.My.Sons.1948.Tvrip.By.Dudincuci.For.HoRaDoT.Net.avi

Audio Sincronizado (Cortesía de joeraymond) Descarga Directa

AUDIO ESPAÑOL SINCRONIZADO-All My Sons (1948)

Avatar de Usuario
sirwilfridrobarts
Mensajes: 1855
Registrado: Lun 01 Mar, 2004 01:00
Ubicación: Se Roquete

Mensaje por sirwilfridrobarts » Mar 14 Ago, 2007 20:33

Pinchada, muchas gracias flomer

Avatar de Usuario
lustyman
Mensajes: 1319
Registrado: Sab 01 Oct, 2005 02:00
Ubicación: Catalunya

Mensaje por lustyman » Mié 15 Ago, 2007 00:55

Otra interesante joyita, gracias.

Avatar de Usuario
always
Mensajes: 1391
Registrado: Mié 30 Abr, 2003 02:00
Ubicación: estaré aquí mismooooo :)

Mensaje por always » Mié 15 Ago, 2007 02:34

Tambien pincho,muchas gracias flomer
saludos
Na tog mi gus an tuit mi
( No me levantes hasta que me haya caído.)

Avatar de Usuario
theycame2001
Mensajes: 1916
Registrado: Sab 10 Jun, 2006 05:30

Mensaje por theycame2001 » Mié 15 Ago, 2007 07:04

Un bocado exquisito. Gracias, Flomer. :P

shiropepe
Mensajes: 220
Registrado: Lun 29 Dic, 2003 01:00

Mensaje por shiropepe » Mié 15 Ago, 2007 08:21

Pinchada, gracias.

Avatar de Usuario
diogenesg
Mensajes: 725
Registrado: Sab 10 Jun, 2006 00:26

Mensaje por diogenesg » Mié 15 Ago, 2007 13:47

En pausa.

gracias
Siéntate a la puerta de tu casa y verás pasar el cadáver de tu enemigo

Avatar de Usuario
Winters
Mensajes: 649
Registrado: Sab 26 Jun, 2004 02:00

Mensaje por Winters » Mié 15 Ago, 2007 17:50

Esta me la llevo.

Muchas gracias flomer.
Currahee

Avatar de Usuario
dhrapi
Dipsómano consagrado.
Mensajes: 6352
Registrado: Jue 06 Nov, 2003 01:00
Ubicación: En la boda de Ignatius Reilly; con Tupp.

Mensaje por dhrapi » Vie 17 Ago, 2007 13:57

Pinchada desde ayer.
Muchas gracias, flomer.

Saludos. :wink:
Jamás saldré vivo de este mundo.

Avatar de Usuario
uranio73
Mensajes: 152
Registrado: Mar 13 Ene, 2004 01:00

Mensaje por uranio73 » Sab 18 Ago, 2007 00:08

Pinchada.
Muchas Gracias flomer.

Saludos.

Avatar de Usuario
dhrapi
Dipsómano consagrado.
Mensajes: 6352
Registrado: Jue 06 Nov, 2003 01:00
Ubicación: En la boda de Ignatius Reilly; con Tupp.

Mensaje por dhrapi » Jue 23 Ago, 2007 13:38

Completa y compartiendo por aquí.
Gracias de nuevo, flomer.

Saludos. :wink:
Jamás saldré vivo de este mundo.

Avatar de Usuario
sirwilfridrobarts
Mensajes: 1855
Registrado: Lun 01 Mar, 2004 01:00
Ubicación: Se Roquete

Mensaje por sirwilfridrobarts » Jue 23 Ago, 2007 15:06

Completa y compartiendo desde hace unos dias, saludos y gracias

Avatar de Usuario
locutus
AKA Jean-Luc Picard
Mensajes: 2044
Registrado: Lun 14 Jun, 2004 02:00
Ubicación: Cuadrante Delta

Mensaje por locutus » Jue 06 Sep, 2007 20:03

Me pongo con ella. Gracias flomer.

Avatar de Usuario
Dardo
Arrow Thrower Clown
Mensajes: 16521
Registrado: Dom 19 Oct, 2003 02:00
Ubicación: Entre Encinas y Dolomías

Re: Todos eran mis hijos (Irving Reis, 1948) SATRip VO

Mensaje por Dardo » Vie 12 Feb, 2010 00:37

flomer. inmenso trabajo.

:plas: :plas:

Avatar de Usuario
Dardo
Arrow Thrower Clown
Mensajes: 16521
Registrado: Dom 19 Oct, 2003 02:00
Ubicación: Entre Encinas y Dolomías

Re: Todos eran mis hijos (Irving Reis, 1948) VHSRip VE | SATRip VOSE

Mensaje por Dardo » Mar 02 Nov, 2010 11:09

Debido a que ayer se hacía una petición sobre esta película...

Comprobé que tenía un ripeo SATRip VO que mejoraba el VHSRip de nuestro querido flomer y al no encontrar el audio doblado me lo facilitó en el día de ayer dhrapi. Cuando procedía a sincronizarlo esta mañana me remite un email un habitual de Ci-Cl y DXC en el que me dice que joeraymond que también nos visita por DXC acaba de publicar el audio sincronizado, por lo que lo he descargado y comprobado que va bien, y por lo tanto me he ahorrado el trabajo :mrgreen:

El motivo de no montarl el dual antes es porque en su día se me pasó, y porque más tarde me encontré con una edición en DVD y estaba intentando conseguir un ripeo del mismo pero hasta la fecha no he visto nada.

Por tanto y hasta que salga algo mejor es justo que tengamos el SATRip VO + AE publicado por aquí. Agradecer a joeraymond el trabajo del audio.

All My Sons SATRip VO + AE

Imagen

All My Sons
(Todos eran mis hijos).
(Usa, 1948) [B/N, 95 m.].

Dirección: Irving Reis.
IMDb / FilmAffinitty

Reparto: Edward G. Robinson, Burt Lancaster, Mady Christians, Louisa Horton, Howard Duff, Frank Conroy, Lloyd Gough, Arlene Francis

Sinopsis: Joe Keller es un exitoso hombre de negocios con un pasado que le atormenta: durante la II Guerra Mundial se benefició de un lucrativo contrato con el ejército. Presionado por las prisas, Joe entregó en un pedido un avión aun sabiendo que tenía elementos defectuosos. El avión sufrió un trágico accidente en el que murieron 21 hombres... (FILMAFFINITY)
Datos Técnicos:

Código: Seleccionar todo

General
Complete name                    : All My Sons (1948) E.G-rob, B.Lancaster TVrip (daimyo).avi
Format                           : AVI
Format/Info                      : Audio Video Interleave
File size                        : 698 MiB
Duration                         : 1h 33mn
Overall bit rate                 : 1 038 Kbps

Video
ID                               : 0
Format                           : MPEG-4 Visual
Format profile                   : Advanced Simple@L5
Format settings, BVOP            : Yes
Format settings, QPel            : No
Format settings, GMC             : No warppoints
Format settings, Matrix          : Default (H.263)
Codec ID                         : XVID
Codec ID/Hint                    : XviD
Duration                         : 1h 33mn
Bit rate                         : 983 Kbps
Width                            : 624 pixels
Height                           : 464 pixels
Display aspect ratio             : 4:3
Frame rate                       : 23.976 fps
Color space                      : YUV
Chroma subsampling               : 4:2:0
Bit depth                        : 8 bits
Scan type                        : Progressive
Bits/(Pixel*Frame)               : 0.142
Stream size                      : 661 MiB (95%)
Writing library                  : XviD 1.2.0SMP (UTC 2006-01-08)

Audio
ID                               : 1
Format                           : MPEG Audio
Format version                   : Version 1
Format profile                   : Layer 3
Codec ID                         : 55
Codec ID/Hint                    : MP3
Duration                         : 1h 33mn
Bit rate mode                    : Variable
Bit rate                         : 45.6 Kbps
Nominal bit rate                 : 48.0 Kbps
Channel(s)                       : 1 channel
Sampling rate                    : 32.0 KHz
Stream size                      : 30.6 MiB (4%)
Alignment                        : Aligned on interleaves
Interleave, duration             : 36 ms (0.86 video frame)
Interleave, preload duration     : 569 ms
Writing library                  : LAME3.97b
Encoding settings                : -m m -V 4 -q 2 -lowpass 11.3 --abr 48
Capturas

Imagen
Imagen
Imagen
Imagen
Imagen

SATRip VO

All.My.Sons.1948.Tvrip.By.Dudincuci.For.HoRaDoT.Net.avi

Audio Sincronizado (Cortesía de joeraymond) Descarga Directa

AUDIO ESPAÑOL SINCRONIZADO-All My Sons (1948)

Avatar de Usuario
vluverry
Mensajes: 17
Registrado: Vie 30 Jul, 2010 01:03

Todos eran mis hijos (Irving Reis, 1948) ARTHUR MILLER EN CINE

Mensaje por vluverry » Mar 02 Nov, 2010 17:53

ARTHUR MILLER EN CINE

La obra y su significado

Imagen

A los 28 años estrenó su primera obra en Broadway, la comedia Un hombre con mucha suerte, que sólo estuvo en cartel en cuatro representaciones. En 1947 estrena Todos eran mis hijos, permaneció en cartelera durante casi un año y recibió en 1948 el Premio de la Crítica otorgado por el Círculo de Críticos de Teatro de Nueva York. En esta obra denuncia el cinismo de las empresas armamentísticas.
Ya desde sus primeros títulos deja entrever lo que sería el elemento fundamental de toda su obra: la crítica social, que denuncia los valores conservadores que comenzaban a asentarse en la sociedad de Estados Unidos. Su consagración definitiva se produce en 1949, con La muerte de un viajante, en la que denuncia el carácter ilusorio del sueño americano. En 1988 Miller declararía: Jamás imaginé que adquiriría las proporciones que ha tenido. Era una obra literal sobre un vendedor, pero luego se convirtió en un mito, no sólo aquí, sino en muchas otras partes del mundo. La obra fue galardonada con el Premio Pulitzer, con tres Premios Tony y de nuevo con el de la Crítica de Nueva York.
En la década de 1950 fue víctima de la caza de brujas. Acusado de simpatías comunistas por Elia Kazan, rehusó revelar los nombres de los componentes de un círculo literario sospechoso de tener vínculos con el Partido Comunista ante la Comisión de Actividades Antiamericanas en 1956, acogiéndose a la protección constitucional. A pesar de las presiones que sufrió (le fue retirado el pasaporte, no pudiendo viajar a Bruselas para asistir al estreno de una de sus obras), Miller no dio ningún nombre, declarando que, aunque había asistido a reuniones en 1947 y firmado algunos manifiestos, no era comunista. En mayo de 1957 se le declaró culpable de desacato al Congreso por haberse negado a revelar nombres de supuestos comunistas. Sin embargo, en agosto de 1958, el Tribunal de Apelación de los Estados Unidos anuló la sentencia, de forma que no tiene que ingresar en la cárcel.

La atmósfera de aquel tiempo se plasmó en Las brujas de Salem (The crucible, 1953). En esta obra se sirve de un acontecimiento real del siglo XVII para atacar la caza de brujas dirigida por el senador McCarthy de la que él mismo fue víctima. También en la década de 1950 publicó Recuerdo de dos lunes (1955) y Panorama desde el puente (1955), llevada con éxito al cine y al teatro y con la que obtuvo su segundo premio Pulitzer. El 29 de junio de 1956 se casó con Marilyn Monroe, matrimonio que duraría cuatro años y medio.

En 1961 escribe el guión de Vidas rebeldes (The Misfits, (Los inadaptados, en Argentina)), escrito para su mujer, Marilyn Monroe y llevada al cine por John Huston, contando además con Montgomery Clift y Clark Gable como protagonistas. Esta sería la última película de Marilyn y de Gable, fallecidos ambos poco después del rodaje.

En 1964, Miller reflejó los cinco atormentados años de relación con Marilyn en la controvertida Después de la caída, con el carácter autodestructivo de la protagonista, Maggie. Otras obras suyas son Incidente en Vichy (1964), El precio (1968), su último éxito de crítica y público, y La creación del mundo (1972). La década de 1970 fue el comienzo de una etapa de oscuridad, en la que fue etiquetado de anticuado, moralista o sermoneador. No saldrá de su relativo ostracismo hasta 1994, con el éxito de Cristales rotos. Durante esta etapa de oscuridad, Miller viaja por todo el mundo, siendo aclamado como un clásico vivo, pero encontrando en su país cada vez más dificultades para estrenar.


http://upload.wikimedia.org/wikipedia/c ... humb/3/38/

Responder