The St. Valentine's Day Massacre (Roger Corman, 1967) DVDRip Dual SE

Publica y encuentra enlaces p2p de filmes hasta 1980 en esta sección.
asg123
Mensajes: 31
Registrado: Mar 21 Dic, 2004 01:00

Re: La Matanza del Día de San Valentín (Corman,1967) DVDRip Dual

Mensaje por asg123 » Dom 14 Sep, 2008 13:02

Ahora mismo a las agüeras de la mula. gracias .saludos asg123

Avatar de Usuario
Dardo
Arrow Thrower Clown
Mensajes: 16736
Registrado: Dom 19 Oct, 2003 02:00
Ubicación: Entre Encinas y Dolomías

La Matanza del Día de San Valentín (Corman,1967) DVDRip Dual SE [x264-

Mensaje por Dardo » Mar 04 Feb, 2014 14:12

Sigo con Capone...
The St. Valentine's Day Massacre
"La matanza del día de San Valentín"
(Roger Corman, 1967)
IMDB
Año de producción: 1967
País: Imagen
Dirección: Roger Corman
Intérpretes: Jason Robards, George Segal, Ralph Meeker,
Jean Hale, Clint Ritchie, Joseph Campanella, John Agar,
Kurt Kreuger, David Canary, Bruce Dern,
Frank Silvera, Jack Nicholson
Guión: Howard Browne
Música: Fred Steiner
Fotografía: Milton Krasner
Duración: 100 minutos
Género: Drama | Mafia. Crimen. Años 20


Sinopsis: El 14 de febrero de 1929, día de San Valentín, fue la fecha en la que Al Capone se proclamó jefe supremo del crimen organizado de Chicago...Filmaffinity

Datos del Ripeo
@@ Vídeo:

Ripeo anamórfico de una edición PAL creo que de origen alemán, que he toqueteado un poco para dejarla con el mejor aspecto posible y en un tamaño y calidad asumibles. Estimo que mejora los ripeos que teníamos publicados, y la película está realmente bien, asi que tocaba renovar.
@@ Audios:

Como siempre el audio VO tal cúal viene en la edición en DVD. He sincronizado el doblaje que había compartido papitu en el ripeo que abrió este hilo. El doblaje pues no he localizado ficha para comentaros año y demás, asi que si alguien dispone información pues que la comparta pero tiene pinta de ser voces de aquella época, o de algún doblaje de los ochenta para TVE.
@@ Subtítulos:

He visto por ahí subidos dos traducciones distintas asi que estimo que serían castellanos y latinos, y los he "ajustado" los dos. La sincro es mejorable asi que si alguno quiere afinar más pues estupendo. También he metido dentro del mkv los subs en inglés.
****************************************
Datos Técnicos
## Ripeo Anamórfico ##

Resolution: 720 x 576 pixels --------- Displayed 1024 x 432

Código: Seleccionar todo

General
Complete name                            : The St. Valentine's Day Massacre (1967)\The St. Valentine's Day Massacre (1967) DVDRip Dual [Eng & Spa] Subs [DivXClasico] .mkv
Format                                   : Matroska
Format version                           : Version 2
File size                                : 1.46 GiB
Duration                                 : 1h 35mn
Overall bit rate                         : 2 175 Kbps
Encoded date                             : UTC 2014-02-03 12:20:29
Writing application                      : mkvmerge v4.0.0 ('The Stars were mine') built on Jun  5 2010 17:44:09
Writing library                          : libebml v1.0.0 + libmatroska v1.0.0

Video
ID                                       : 1
Format                                   : AVC
Format/Info                              : Advanced Video Codec
Format profile                           : High@L4.1
Format settings, CABAC                   : Yes
Format settings, ReFrames                : 16 frames
Codec ID                                 : V_MPEG4/ISO/AVC
Duration                                 : 1h 35mn
Bit rate                                 : 1 844 Kbps
Width                                    : 720 pixels
Height                                   : 432 pixels
Display aspect ratio                     : 2.35:1
Frame rate                               : 25.000 fps
Color space                              : YUV
Chroma subsampling                       : 4:2:0
Bit depth                                : 8 bits
Scan type                                : Progressive
Bits/(Pixel*Frame)                       : 0.237
Stream size                              : 1.23 GiB (85%)
Writing library                          : x264 core 140 r2377 1ca7bb9
Encoding settings                        : cabac=1 / ref=16 / deblock=1:-1:-1 / analyse=0x3:0x133 / me=umh / subme=10 / psy=1 / psy_rd=1.00:0.15 / mixed_ref=1 / me_range=24 / chroma_me=1 / trellis=2 / 8x8dct=1 / cqm=0 / deadzone=21,11 / fast_pskip=1 / chroma_qp_offset=-3 / threads=3 / lookahead_threads=1 / sliced_threads=0 / nr=0 / decimate=1 / interlaced=0 / bluray_compat=0 / constrained_intra=0 / bframes=8 / b_pyramid=2 / b_adapt=2 / b_bias=0 / direct=3 / weightb=1 / open_gop=0 / weightp=2 / keyint=250 / keyint_min=25 / scenecut=40 / intra_refresh=0 / rc_lookahead=60 / rc=crf / mbtree=1 / crf=18.5 / qcomp=0.60 / qpmin=0 / qpmax=69 / qpstep=4 / ip_ratio=1.40 / aq=1:1.00
Language                                 : English
Default                                  : No
Forced                                   : No

Audio #1
ID                                       : 2
Format                                   : AC-3
Format/Info                              : Audio Coding 3
Mode extension                           : CM (complete main)
Codec ID                                 : A_AC3
Duration                                 : 1h 35mn
Bit rate mode                            : Constant
Bit rate                                 : 192 Kbps
Channel(s)                               : 2 channels
Channel positions                        : Front: L R
Sampling rate                            : 48.0 KHz
Bit depth                                : 16 bits
Compression mode                         : Lossy
Stream size                              : 132 MiB (9%)
Language                                 : English
Default                                  : No
Forced                                   : No

Audio #2
ID                                       : 3
Format                                   : MPEG Audio
Format version                           : Version 1
Format profile                           : Layer 3
Mode                                     : Joint stereo
Codec ID                                 : A_MPEG/L3
Codec ID/Hint                            : MP3
Duration                                 : 1h 35mn
Bit rate mode                            : Constant
Bit rate                                 : 96.0 Kbps
Channel(s)                               : 2 channels
Sampling rate                            : 44.1 KHz
Compression mode                         : Lossy
Stream size                              : 65.8 MiB (4%)
Language                                 : Spanish
Default                                  : No
Forced                                   : No

Text #1
ID                                       : 4
Format                                   : UTF-8
Codec ID                                 : S_TEXT/UTF8
Codec ID/Info                            : UTF-8 Plain Text
Title                                    : castellano
Language                                 : Spanish
Default                                  : Yes
Forced                                   : No

Text #2
ID                                       : 5
Format                                   : UTF-8
Codec ID                                 : S_TEXT/UTF8
Codec ID/Info                            : UTF-8 Plain Text
Title                                    : latinos
Language                                 : Spanish
Default                                  : No
Forced                                   : No

Text #3
ID                                       : 6
Format                                   : UTF-8
Codec ID                                 : S_TEXT/UTF8
Codec ID/Info                            : UTF-8 Plain Text
Language                                 : English
Default                                  : No
Forced                                   : No
Capturas

Imagen

Imagen

Imagen

Imagen

Imagen

Imagen

Imagen

Enlaces
@@ Subtítulos en Español (castellano y latinos) e ingleses dentro del mkv.
--------------------------
Enlaces Relacionados en DXC:
Películas de Roger Corman en DXC

Avatar de Usuario
DMMD
Mensajes: 1758
Registrado: Lun 27 Feb, 2012 14:16

Re: The St. Valentine's Day Massacre (Roger Corman, 1967) DVDRip Dual

Mensaje por DMMD » Mar 04 Feb, 2014 14:54

De los pocos Corman que me llaman la atención :mrgreen:

Gracias la bajaremos :sonrisa:

Avatar de Usuario
LuisNieto
Mensajes: 1132
Registrado: Mié 29 Feb, 2012 16:36
Ubicación: 308 Negra Arroyo Lane

Re: The St. Valentine's Day Massacre (Roger Corman, 1967) DVDRip Dual

Mensaje por LuisNieto » Mar 04 Feb, 2014 16:56

Dardo escribió:Sigo con Capone...
Sigo con Dardo :mrgreen:

Muchas gracias :plas: :plas:

Avatar de Usuario
jcarlos7840
Mensajes: 238
Registrado: Mar 03 May, 2011 20:27

Re: The St. Valentine's Day Massacre (Roger Corman, 1967) DVDRip Dual

Mensaje por jcarlos7840 » Mar 04 Feb, 2014 18:23

Muchas gracias Dardo

joramor
Mensajes: 1680
Registrado: Vie 05 Nov, 2010 19:55

Re: The St. Valentine's Day Massacre (Roger Corman, 1967) DVDRip Dual

Mensaje por joramor » Mar 04 Feb, 2014 19:40

Muchas gracias Dardo. Salu2.

Avatar de Usuario
birdmanradio
Mensajes: 937
Registrado: Vie 18 May, 2007 11:26

Re: The St. Valentine's Day Massacre (Roger Corman, 1967) DVDRip Dual

Mensaje por birdmanradio » Mar 04 Feb, 2014 19:47

Muchas gracias Dardo, renovado copia :plas: :plas: :plas:

jmog
Mensajes: 972
Registrado: Mié 06 Mar, 2013 23:22

Re: The St. Valentine's Day Massacre (Roger Corman, 1967) DVDRip Dual

Mensaje por jmog » Mar 04 Feb, 2014 22:54

Gracias Dardo, me uno a esta masacre.

Antígono
Mensajes: 562
Registrado: Vie 01 Mar, 2013 18:59

Re: The St. Valentine's Day Massacre (Roger Corman, 1967) DVDRip Dual

Mensaje por Antígono » Mié 05 Feb, 2014 18:29

Gracias Dardo, a ver que tal está este Corman con Robards-Capone al que casi no reconozco en las capturas así tan limpito.

Avatar de Usuario
adelon
Mensajes: 174
Registrado: Vie 12 Mar, 2010 20:25

Re: The St. Valentine's Day Massacre (Roger Corman, 1967) DVDRip Dual

Mensaje por adelon » Jue 29 May, 2014 17:05

Muchas gracias, Dardo. Pinchando. Ya os diré que doblaje trae cuando lo oiga.

Avatar de Usuario
Spanish Jhonny
Mensajes: 3049
Registrado: Mar 18 Sep, 2012 16:01

Re: The St. Valentine's Day Massacre (Roger Corman, 1967) DVDRip Dual

Mensaje por Spanish Jhonny » Vie 30 May, 2014 09:36

Muchas gracias

Avatar de Usuario
javisambo
Mensajes: 2131
Registrado: Mar 07 Ago, 2012 07:51
Ubicación: Yharnam

Re: The St. Valentine's Day Massacre (Roger Corman, 1967) DVDRip Dual

Mensaje por javisambo » Vie 30 May, 2014 12:45

Muchas gracias Spanish Jhonny, tu dedo señala el camino... hacia un aporte Dardiano que había pasado desapercibido en mi radar.... hasta ahora 8)
Gracias a ti también Dardapone (:-) :oops: :wacky: :cabezon:

Avatar de Usuario
srjaime
Mensajes: 166
Registrado: Vie 25 Jun, 2004 02:00

Re: The St. Valentine's Day Massacre (Roger Corman, 1967) DVDRip Dual

Mensaje por srjaime » Vie 30 May, 2014 16:47

javisambo escribió:Muchas gracias Spanish Jhonny, tu dedo señala el camino... hacia un aporte Dardiano que había pasado desapercibido en mi radar.... hasta ahora 8)
Gracias a ti también Dardapone (:-) :oops: :wacky: :cabezon:
Cierto, me apunto también. Gracias Dardo.

Avatar de Usuario
adelon
Mensajes: 174
Registrado: Vie 12 Mar, 2010 20:25

Re: The St. Valentine's Day Massacre (Roger Corman, 1967) DVDRip Dual

Mensaje por adelon » Dom 01 Jun, 2014 19:21

He escuchado un poquito el doblaje y pienso que será de finales de los '80, no es el doblaje original de cines. La verdad que es un doblaje muy malico. Es un poco pena pues la peli tiene un envoltorio de lujo.

jamescagney
Mensajes: 147
Registrado: Dom 02 Dic, 2012 15:59

Re: The St. Valentine's Day Massacre (Roger Corman, 1967) DVDRip Dual SE

Mensaje por jamescagney » Dom 06 May, 2018 19:35

Muchas gracias dardo, gran pelicula. Una pena que no esté en Bluray.

ostrata
Mensajes: 2285
Registrado: Mié 24 Mar, 2010 17:29

Re: The St. Valentine's Day Massacre (Roger Corman, 1967) DVDRip Dual SE

Mensaje por ostrata » Dom 06 May, 2018 21:19

Me apunto yo ahora también.

Gracias. :)
Saludos.

teoremista
Mensajes: 390
Registrado: Vie 18 May, 2007 10:56

Re: The St. Valentine's Day Massacre (Roger Corman, 1967) DVDRip Dual SE

Mensaje por teoremista » Lun 07 May, 2018 08:31

Gracias!!!

sikander
Mensajes: 50
Registrado: Mar 09 Ago, 2011 17:36

Re: The St. Valentine's Day Massacre (Roger Corman, 1967) BDRip 1080p VO

Mensaje por sikander » Dom 10 Jun, 2018 18:40

Año : 1967
Dirección: Roger Corman
Intérpretes: Jason Robards, George Segal, Ralph Meeker, Jean Hale, Clint Ritchie, Joseph Campanella
Guión: Howard Browne
Duración: 100 minutos

Imagen
Imagen
Imagen
Spoiler: mostrar
General
Unique ID : 187020715032202207532395140121418658877 (0x8CB2E128E2DA40BF75B5880676D9F43D)
Complete name : C:\Users\DAVID\Downloads\eMule\Incoming\La matanza del dia de San Valentin (1080p) VO The St. Valentine's Day Massacre (1967).mkv
Format : Matroska
Format version : Version 4 / Version 2
File size : 3.54 GiB
Duration : 1 h 39 min
Overall bit rate : 5 068 kb/s
Movie name : The St. Valentine's Day Massacre (1967)-alE13
Encoded date : UTC 2018-06-10 15:37:50
Writing application : mkvmerge v20.0.0 ('I Am The Sun') 64-bit
Writing library : libebml v1.3.5 + libmatroska v1.4.8

Video
ID : 1
Format : HEVC
Format/Info : High Efficiency Video Coding
Codec ID : V_MPEGH/ISO/HEVC
Duration : 1 h 39 min
Bit rate : 4 297 kb/s
Width : 1 920 pixels
Height : 800 pixels
Display aspect ratio : 2.40:1
Frame rate mode : Constant
Frame rate : 23.976 (24000/1001) FPS
Bits/(Pixel*Frame) : 0.117
Stream size : 3.00 GiB (85%)
Title : The St. Valentine's Day Massacre (1967)-alE13
Default : Yes
Forced : No

Audio
ID : 2
Format : DTS
Format/Info : Digital Theater Systems
Mode : 16
Format settings, Endianness : Big
Codec ID : A_DTS
Duration : 1 h 39 min
Bit rate mode : Constant
Bit rate : 768 kb/s
Channel(s) : 1 channel
Channel positions : Front: C
Sampling rate : 48.0 kHz
Frame rate : 93.750 FPS (512 spf)
Bit depth : 24 bits
Compression mode : Lossy
Stream size : 549 MiB (15%)
Title : The St. Valentine's Day Massacre (1967)-alE13
Language : English
Default : No
Forced : No
Elink
ed2k linkLa matanza del dia de San Valentin (1080p) VO The St. Valentine's Day Massacre (1967).mkv ed2k link stats

Avatar de Usuario
hector Glauco
Mensajes: 555
Registrado: Lun 10 Ago, 2015 14:13
Ubicación: En el Tarragonés y FDL2

Re: The St. Valentine's Day Massacre (Roger Corman, 1967) DVDRip Dual SE

Mensaje por hector Glauco » Mar 12 Ene, 2021 17:43

Esta también necesitaba una mejora de cutis. Merci Papitu.

Responder