Ángeles sin paraíso (John Cassavetes, 1963) DVDRip Dual SE

Publica y encuentra enlaces p2p de filmes hasta 1980 en esta sección.
Avatar de Usuario
Persona
Mensajes: 409
Registrado: Mié 08 Sep, 2004 02:00
Ubicación: Madrid

Ángeles sin paraíso (John Cassavetes, 1963) DVDRip Dual SE

Mensaje por Persona » Dom 17 Abr, 2005 23:39

Pues nada, que he hecho un DUAL de estos que si quitas una pista de audio se queda en 1 CD.
Título original: A Child Is Waiting



[quote="Culturalia"]Género:Drama

Nacionalidad:USA

Director:John Cassavetes

Actores:
Burt Lancaster
Judy Garland
Gena Rowlands
Steven Hill
Paul Stewart
Gloria McGehee
Lawrence Tierney
Bruce Ritchey
John Marley
Bill Mumy
Elizabeth Wilson

Productor:Stanley Kramer

Guión:Abby Mann

Fotografía:Joseph LaShelle

Música:Ernest Gold

Sinopsis:
La tercera película de Cassavetes surgió del deseo de trabajar con Burt Lancaster y de una propuesta de Stanley Kramer. Lamentablemente, director y productor chocaron en el enfoque que se debería dar a un filme conflictivo que trataba de la difícil relación de una mujer con un grupo de niños deficientes.

Calificación moral: Todos los públicos
Duración: 100 minutos.
[/quote]

Ángeles sin paraíso en Culturalia y en imdb

Imagen
Imagen

Datos técnicos:

Código: Seleccionar todo

Tamaño total: 765 MB (or 784,288 KB or 803,110,912 bytes)
Video:
576 x 336
AR: 1.714 
Bitrate: 870
Qf.: 0.180

Audio:

2 cadenas
1-44100Hz  93 kb/s total (2 chnls) LAME
2-44100Hz  91 kb/s total (2 chnls) LAME
Angeles_sin_paraiso(A.child.is.waiting)(DUAL.Spa.eng).Persona(DXC).avi

ya están los subtítulos en extratitles
***********************************
Nuevo DVDRip Dual a cargo de un tal Dardo
A Child Is Waiting (John Cassavetes, 1963)

Imagen
Datos Técnicos

Código: Seleccionar todo

General
Complete name                    : A Child is Waiting DVDRip Dual [Ing & Esp].avi
Format                           : AVI
Format/Info                      : Audio Video Interleave
Format profile                   : OpenDML
File size                        : 1.58 GiB
Duration                         : 1h 40mn
Overall bit rate                 : 2 259 Kbps


Video
ID                               : 0
Format                           : MPEG-4 Visual
Format profile                   : Advanced Simple@L5
Format settings, BVOP            : Yes
Format settings, QPel            : No
Format settings, GMC             : No warppoints
Format settings, Matrix          : Default (MPEG)
Codec ID                         : XVID
Codec ID/Hint                    : XviD
Duration                         : 1h 40mn
Bit rate                         : 1 870 Kbps
Width                            : 704 pixels
Height                           : 432 pixels
Display aspect ratio             : 1.630
Frame rate                       : 25.000 fps
Color space                      : YUV
Chroma subsampling               : 4:2:0
Bit depth                        : 8 bits
Scan type                        : Progressive
Bits/(Pixel*Frame)               : 0.246
Stream size                      : 1.31 GiB (83%)
Writing library                  : XviD 1.2.1 (UTC 2008-12-04)

Audio #1
ID                               : 1
Format                           : MPEG Audio
Format version                   : Version 1
Format profile                   : Layer 3
Mode                             : Joint stereo
Mode extension                   : MS Stereo
Codec ID                         : 55
Codec ID/Hint                    : MP3
Duration                         : 1h 40mn
Bit rate mode                    : Constant
Bit rate                         : 192 Kbps
Channel(s)                       : 2 channels
Sampling rate                    : 48.0 KHz
Stream size                      : 138 MiB (9%)
Alignment                        : Aligned on interleaves
Interleave, duration             : 394 ms (9.85 video frames)
Interleave, preload duration     : 216 ms

Audio #2
ID                               : 2
Format                           : MPEG Audio
Format version                   : Version 1
Format profile                   : Layer 3
Mode                             : Joint stereo
Mode extension                   : MS Stereo
Codec ID                         : 55
Codec ID/Hint                    : MP3
Duration                         : 1h 40mn
Bit rate mode                    : Constant
Bit rate                         : 192 Kbps
Channel(s)                       : 2 channels
Sampling rate                    : 48.0 KHz
Stream size                      : 138 MiB (9%)
Alignment                        : Aligned on interleaves
Interleave, duration             : 394 ms (9.85 video frames)
Interleave, preload duration     : 216 ms
Capturas:

Imagen
Imagen
Imagen
Imagen
Imagen
Imagen
Imagen
Imagen
A Child is Waiting DVDRip Dual (Ing & Esp).avi

Subtítulos: (Son los que ya había posteado persona) Español (descarga directa)
“Qué mala suerte, si esto le puede pasar a cualquiera”.

Alfonso XIII a Douglas Fairbanks sobre el caso Arbuckle-Rappese.

Avatar de Usuario
jolu
Mensajes: 377
Registrado: Vie 28 Ene, 2005 01:00

Mensaje por jolu » Dom 17 Abr, 2005 23:48

primer muchas gracias

Bruckheimer
Mensajes: 616
Registrado: Jue 09 Sep, 2004 02:00
Ubicación: Navegando en mi limonero

Mensaje por Bruckheimer » Dom 17 Abr, 2005 23:51

Pinchada y descargando.Muchas gracias Persona,grande como siempre.Un saludo.
Imagen

Avatar de Usuario
KeyserSoze
Mensajes: 6301
Registrado: Jue 03 Oct, 2002 02:00
Contactar:

Mensaje por KeyserSoze » Lun 18 Abr, 2005 00:29

Muchas gracias. La puse a bajar ya.
Sobre la resolución, para los que la miran como yo siempre (y ahorrarles el viaje a imdb), la original es 1.66:1 y suele ser normal que sin bandas negras pase a 1.71-1.72

Saludos
Hilo de presentaciones para nuevos usuarios. Recordad leer los hilos fijos de cada foro antes de abrir un tema. Muchas gracias.

Avatar de Usuario
Tucco
Mensajes: 297
Registrado: Mar 23 Sep, 2003 02:00

Mensaje por Tucco » Lun 18 Abr, 2005 00:52

Pinchada tambien por aquí.

Gracias.

Avatar de Usuario
Jma32
Mensajes: 1893
Registrado: Jue 25 Sep, 2003 02:00

Mensaje por Jma32 » Lun 18 Abr, 2005 01:17

Descargando, gracias.

Saludos

nadra
Mensajes: 168
Registrado: Lun 18 Abr, 2005 02:00
Contactar:

Mensaje por nadra » Lun 18 Abr, 2005 04:00

Pinchada. Gracias.

Avatar de Usuario
spione
Mensajes: 2187
Registrado: Mar 04 Nov, 2003 01:00
Ubicación: Madrid

Mensaje por spione » Lun 18 Abr, 2005 17:34

muchas gracias :wink:

Avatar de Usuario
lawrence
Mensajes: 1200
Registrado: Lun 17 Feb, 2003 01:00

Mensaje por lawrence » Lun 18 Abr, 2005 18:28

Yo también pincho. Gracias, Persona.

Avatar de Usuario
Norman_Bates
Mensajes: 472
Registrado: Sab 18 Dic, 2004 01:00
Ubicación: Alicante

Mensaje por Norman_Bates » Lun 18 Abr, 2005 19:24

- Cualquier aportación de Cassavetes es de agradecer, asi que gracias Persona.
"El mejor amigo de un muchacho es su madre"

Avatar de Usuario
condeorlok
Mensajes: 2480
Registrado: Mar 20 Ene, 2004 01:00

Mensaje por condeorlok » Mar 19 Abr, 2005 10:21

Me apunto

Gracias Persona

Avatar de Usuario
Persona
Mensajes: 409
Registrado: Mié 08 Sep, 2004 02:00
Ubicación: Madrid

Mensaje por Persona » Jue 21 Abr, 2005 14:05

hola, buenas. Os agradecería algún dato sobre cómo van las descargas porfa. Es que tengo otra para lanzar y no tengo ni idea de qué tal va esta. :lol:

Un saludo!!
“Qué mala suerte, si esto le puede pasar a cualquiera”.

Alfonso XIII a Douglas Fairbanks sobre el caso Arbuckle-Rappese.

jangelcm
Mensajes: 486
Registrado: Jue 16 Sep, 2004 02:00

Mensaje por jangelcm » Jue 21 Abr, 2005 15:13

Recién visto el hilo y pinchada!!

Gracias Persona :wink:

Avatar de Usuario
idem
Mensajes: 318
Registrado: Vie 26 Jul, 2002 02:00
Ubicación: Islas Canarias

Mensaje por idem » Jue 21 Abr, 2005 15:38

me apunto

gracias Persona

Avatar de Usuario
always
Mensajes: 1391
Registrado: Mié 30 Abr, 2003 02:00
Ubicación: estaré aquí mismooooo :)

Mensaje por always » Jue 21 Abr, 2005 16:40

Pincho,gracias Persona :)
Na tog mi gus an tuit mi
( No me levantes hasta que me haya caído.)

Bruckheimer
Mensajes: 616
Registrado: Jue 09 Sep, 2004 02:00
Ubicación: Navegando en mi limonero

Mensaje por Bruckheimer » Jue 21 Abr, 2005 16:54

Hola a tod@s.Informo descargado 404 megas. :D .La cosa va rapidilla,gracias,de nuevo.Persona. :plas: .
Imagen

nadra
Mensajes: 168
Registrado: Lun 18 Abr, 2005 02:00
Contactar:

Mensaje por nadra » Jue 21 Abr, 2005 17:26

Yo llevo 118 megas descargados, pero tengo LowID, así qu no sé si te va a servir mucho como referencia, Persona. Salu2.
Última edición por nadra el Jue 21 Abr, 2005 17:32, editado 1 vez en total.

Avatar de Usuario
pickpocket
Mensajes: 5341
Registrado: Dom 11 Abr, 2004 02:00
Ubicación: Junto al rio, con Wang Wei

Mensaje por pickpocket » Jue 21 Abr, 2005 17:27

Ups..se me olvido decir que la pinche y la complete :oops: .Un saludo :wink:

Avatar de Usuario
dhrapi
Dipsómano consagrado.
Mensajes: 6352
Registrado: Jue 06 Nov, 2003 01:00
Ubicación: En la boda de Ignatius Reilly; con Tupp.

Mensaje por dhrapi » Dom 24 Abr, 2005 17:09

Pinchada hace un par de días.

Gracias Persona. :wink:

Saludos.
Jamás saldré vivo de este mundo.

Bruckheimer
Mensajes: 616
Registrado: Jue 09 Sep, 2004 02:00
Ubicación: Navegando en mi limonero

Mensaje por Bruckheimer » Mié 27 Abr, 2005 14:10

Completa y compartiendo.Gracias Persona.
Imagen

Responder