L'atalante (Jean Vigo, 1934) HD 1080p VOSE

Publica y encuentra enlaces p2p de filmes hasta 1980 en esta sección.
Responder
Avatar de Usuario
Teeninlove
Mensajes: 1640
Registrado: Dom 25 Jul, 2004 02:00

L'atalante (Jean Vigo, 1934) HD 1080p VOSE

Mensaje por Teeninlove » Mar 25 Jun, 2024 21:55

L'atalante (Jean Vigo, 1934)

IMDb

filmaffinity

Imagen Imagen







Sinopsis:
Jean y Juliette contraen matrimonio y emprenden su viaje de bodas a bordo de L'Atalante, una barcaza de la cual Jean es capitán. Junto con el marinero Père Jules y un joven cabinero, la pareja navega por los canales cercanos al Sena. El largo viaje resulta aburrido para Juliette, quien ansía conocer la Ciudad de la luz. Jean cumple entonces el deseo de su joven esposa y la lleva a París. (FILMAFFINITY)


Restored in 4K in 2017 by Gaumont, distributed in Japan by IVC (International Visual Corporation).
- The restoration work was carried out at L'Immagine Ritrovata and in the laboratories of L'Image Retrouvée, with support from Cinémathèque Française, The Film Foundation (founded by Martin Scorsese), and CNC (Centre national du cinéma et de l'image animée), based on original copies of first-generation nitrate source kept by BFI, Cineteca Italiana, and Cinémathèque Française.
Several restorations were attempted over the years, but they often lacked knowledge of what Vigo’s choices had been. In 1990, thanks in part to the discovery of a 1934 L’Atalante print in London, a new restoration was made, but the temptation to add beautiful outtakes, which were also found at the time, proved too strong. Since then, French historian Bernard Eisenschitz has been working on constituting a new version that is as close as possible to the director’s original cut. (link)

Thanks to the collaboration of numerous cinematheques (La Cinematheque Francaise, Cineteca Italiana in Milan, BFI National Film Archive, Cinémathèque Royale de Belgique) that loaned their prints, a frame-by-frame comparison from several different versions was completed to note scene variations. Using the edge codes, the film stocks were dated to choose the earliest and best version for the 4K scan.

The same workflow was utilized for the sound restoration; comparison of all the elements to obtain the best audio quality. It was especially important to respect the integrity of the original score by Maurice Jaubert.

With this restoration, Gaumont, Luce Vigo, who passed away on February 12th, and Bernard Eisenschitz, completed many years of research on the existing film material, writings, documents, and testimonies, always staying faithful to the intentions of Jean Vigo.

http://www.film-foundation.org/latalant ... s-classics


Capturas:

ImagenImagen
ImagenImagen
ImagenImagen




Datos Técnicos:
Spoiler: mostrar

General
Unique ID : 135138745304611643161733580553784001026 (0x65AAC68F390C406333A0499DF7320202)
Complete name : C:\L'Atalante.1934.1080p.Bluray JPN 4k remast.FLAC.x264-PTP VOSE.mkv
Format : Matroska
Format version : Version 4
File size : 12.7 GiB
Duration : 1 h 28 min
Overall bit rate mode : Variable
Overall bit rate : 20.5 Mb/s
Movie name : L'Atalante (1934)
Encoded date : UTC 2024-06-15 08:29:55
Writing application : mkvmerge v82.0 ('I'm The President') 64-bit
Writing library : libebml v1.4.5 + libmatroska v1.7.1

Video
ID : 1
Format : AVC
Format/Info : Advanced Video Codec
Format profile : High@L4.1
Format settings : CABAC / 5 Ref Frames
Format settings, CABAC : Yes
Format settings, Reference frames : 5 frames
Codec ID : V_MPEG4/ISO/AVC
Duration : 1 h 28 min
Bit rate : 20.3 Mb/s
Width : 1 376 pixels
Height : 1 080 pixels
Display aspect ratio : 1.274
Frame rate mode : Constant
Frame rate : 23.976 (24000/1001) FPS
Color space : YUV
Chroma subsampling : 4:2:0
Bit depth : 8 bits
Scan type : Progressive
Bits/(Pixel*Frame) : 0.569
Stream size : 12.6 GiB (99%)
Title : V_MPEG4/ISO/AVC
Writing library : x264 core 164 r3095 baee400
Encoding settings : cabac=1 / ref=5 / deblock=1:-3:-3 / analyse=0x3:0x133 / me=umh / subme=10 / psy=1 / psy_rd=1.00:0.00 / mixed_ref=1 / me_range=32 / chroma_me=1 / trellis=2 / 8x8dct=1 / cqm=0 / deadzone=21,11 / fast_pskip=0 / chroma_qp_offset=-2 / threads=12 / lookahead_threads=3 / sliced_threads=0 / nr=0 / decimate=0 / interlaced=0 / bluray_compat=0 / constrained_intra=0 / bframes=16 / b_pyramid=2 / b_adapt=2 / b_bias=0 / direct=3 / weightb=1 / open_gop=0 / weightp=2 / keyint=240 / keyint_min=24 / scenecut=40 / intra_refresh=0 / rc_lookahead=60 / rc=crf / mbtree=0 / crf=17.0 / qcomp=0.60 / qpmin=0 / qpmax=69 / qpstep=4 / vbv_maxrate=62500 / vbv_bufsize=78125 / crf_max=0.0 / nal_hrd=none / filler=0 / ip_ratio=1.40 / pb_ratio=1.30 / aq=2:1.00
Language : French
Default : Yes
Forced : No
Color range : Limited
Color primaries : BT.709
Transfer characteristics : BT.709
Matrix coefficients : BT.709

Audio #1
ID : 2
Format : FLAC
Format/Info : Free Lossless Audio Codec
Codec ID : A_FLAC
Duration : 1 h 28 min
Bit rate mode : Variable
Bit rate : 196 kb/s
Channel(s) : 1 channel
Channel layout : C
Sampling rate : 48.0 kHz
Frame rate : 11.719 FPS (4096 SPF)
Bit depth : 16 bits
Compression mode : Lossless
Stream size : 125 MiB (1%)
Title : FLAC 1.0
Writing library : libFLAC 1.2.1 (UTC 2007-09-17)
Language : French
Default : Yes
Forced : No

Audio #2
ID : 3
Format : AAC LC
Format/Info : Advanced Audio Codec Low Complexity
Codec ID : A_AAC-2
Duration : 1 h 28 min
Bit rate : 69.5 kb/s
Channel(s) : 1 channel
Channel layout : C
Sampling rate : 48.0 kHz
Frame rate : 46.875 FPS (1024 SPF)
Compression mode : Lossy
Stream size : 44.0 MiB (0%)
Title : Commentary with Author of Jean Vigo Michael Temple
Language : English
Default : No
Forced : No

Text #1
ID : 4
Format : UTF-8
Codec ID : S_TEXT/UTF8
Codec ID/Info : UTF-8 Plain Text
Duration : 1 h 23 min
Bit rate : 36 b/s
Count of elements : 789
Stream size : 22.4 KiB (0%)
Title : spa BD Acontra
Language : Spanish
Default : Yes
Forced : No

Text #2
ID : 5
Format : UTF-8
Codec ID : S_TEXT/UTF8
Codec ID/Info : UTF-8 Plain Text
Duration : 1 h 23 min
Bit rate : 33 b/s
Count of elements : 748
Stream size : 20.2 KiB (0%)
Title : OCR SRT
Language : English
Default : Yes
Forced : No

Text #3
ID : 6
Format : UTF-8
Codec ID : S_TEXT/UTF8
Codec ID/Info : UTF-8 Plain Text
Duration : 1 h 28 min
Bit rate : 33 b/s
Count of elements : 763
Stream size : 21.5 KiB (0%)
Language : English
Default : Yes
Forced : No

Text #4
ID : 7
Format : PGS
Muxing mode : zlib
Codec ID : S_HDMV/PGS
Codec ID/Info : Picture based subtitle format used on BDs/HD-DVDs
Duration : 1 h 26 min
Bit rate : 17.5 kb/s
Count of elements : 1488
Stream size : 10.8 MiB (0%)
Language : Japanese
Default : No
Forced : No

Menu
00:00:00.000 : :00:00:00.000
00:10:29.420 : :00:10:29.420
00:24:18.707 : :00:24:18.707
00:31:05.864 : :00:31:05.864
00:40:59.040 : :00:40:59.040
00:55:16.814 : :00:55:16.813
01:05:05.068 : :01:05:05.068
01:18:06.140 : :01:18:06.140









Edición Criterion




Capturas:


ImagenImagen
ImagenImagen
ImagenImagen
Imagen









Datos Técnicos:
Spoiler: mostrar
General
Unique ID : 251775738487663522581261100080109648958 (0xBD6A3E4F9DF86B15F3A8B4E25CF6FC3E)
Complete name : C:\L'Atalante 1934 1080p BluRay Criterion FLAC x264-EA VOSE.mkv
Format : Matroska
Format version : Version 4
File size : 10.4 GiB
Duration : 1 h 29 min
Overall bit rate mode : Variable
Overall bit rate : 16.7 Mb/s
Movie name : Jean Vigo - L'Atalante (1934)
Encoded date : UTC 2024-06-15 06:34:22
Writing application : mkvmerge v82.0 ('I'm The President') 64-bit
Writing library : libebml v1.4.5 + libmatroska v1.7.1
Cover : Yes
Attachments : cover.jpg

Video
ID : 1
Format : AVC
Format/Info : Advanced Video Codec
Format profile : High@L4.1
Format settings : CABAC / 5 Ref Frames
Format settings, CABAC : Yes
Format settings, Reference frames : 5 frames
Codec ID : V_MPEG4/ISO/AVC
Duration : 1 h 29 min
Bit rate : 16.0 Mb/s
Width : 1 440 pixels
Height : 1 080 pixels
Display aspect ratio : 4:3
Frame rate mode : Constant
Frame rate : 23.976 (24000/1001) FPS
Color space : YUV
Chroma subsampling : 4:2:0
Bit depth : 8 bits
Scan type : Progressive
Bits/(Pixel*Frame) : 0.429
Stream size : 9.97 GiB (96%)
Title : -EA
Writing library : x264 core 144 r0+2574 9abcd72 t_mod_Custom [8-bit@all X86_64]
Encoding settings : cabac=1 / ref=5 / deblock=1:-3:-3 / analyse=0x3:0x113 / me=umh / subme=10 / psy=1 / fade_compensate=0.00 / psy_rd=1.10:0.00 / mixed_ref=1 / me_range=32 / chroma_me=0 / trellis=2 / 8x8dct=1 / cqm=0 / deadzone=21,11 / fast_pskip=0 / chroma_qp_offset=-2 / threads=12 / lookahead_threads=3 / sliced_threads=0 / nr=0 / decimate=0 / interlaced=0 / bluray_compat=0 / constrained_intra=0 / fgo=0 / bframes=10 / b_pyramid=2 / b_adapt=2 / b_bias=0 / direct=3 / weightb=1 / open_gop=0 / weightp=2 / keyint=240 / keyint_min=23 / scenecut=40 / intra_refresh=0 / rc_lookahead=50 / rc=crf / mbtree=0 / crf=19.4000 / qcomp=0.75 / qpmin=0:0:0 / qpmax=69:69:69 / qpstep=4 / vbv_maxrate=62500 / vbv_bufsize=78125 / crf_max=0.0 / nal_hrd=none / filler=0 / ip_ratio=1.20 / pb_ratio=1.10 / aq=1:0.50 / aq-sensitivity=10.00 / aq-factor=1.00:1.00:1.00 / aq2=1:0.40 / aq2-sensitivity=15.00 / aq2-factor=1.00:1.00:1.00 / aq3=0
Language : French
Default : Yes
Forced : No

Audio #1
ID : 2
Format : FLAC
Format/Info : Free Lossless Audio Codec
Codec ID : A_FLAC
Duration : 1 h 29 min
Bit rate mode : Variable
Bit rate : 516 kb/s
Channel(s) : 1 channel
Channel layout : C
Sampling rate : 48.0 kHz
Frame rate : 11.719 FPS (4096 SPF)
Bit depth : 24 bits
Compression mode : Lossless
Stream size : 329 MiB (3%)
Title : French 1.0 FLAC BD
Writing library : libFLAC 1.3.0 (UTC 2013-05-26)
Language : French
Default : Yes
Forced : No

Audio #2
ID : 3
ID in the original source medium : 4353 (0x1101)
Format : AC-3
Format/Info : Audio Coding 3
Commercial name : Dolby Digital
Codec ID : A_AC3
Duration : 1 h 29 min
Bit rate mode : Constant
Bit rate : 192 kb/s
Channel(s) : 1 channel
Channel layout : C
Sampling rate : 48.0 kHz
Frame rate : 31.250 FPS (1536 SPF)
Compression mode : Lossy
Stream size : 123 MiB (1%)
Title : Commentary with Michael Temple
Language : English
Service kind : Complete Main
Default : No
Forced : No
Original source medium : Blu-ray

Text #1
ID : 4
Format : UTF-8
Codec ID : S_TEXT/UTF8
Codec ID/Info : UTF-8 Plain Text
Duration : 1 h 28 min
Bit rate : 35 b/s
Count of elements : 794
Stream size : 22.7 KiB (0%)
Title : spa BD Acontra
Language : Spanish
Default : Yes
Forced : No

Text #2
ID : 5
Format : UTF-8
Codec ID : S_TEXT/UTF8
Codec ID/Info : UTF-8 Plain Text
Duration : 1 h 28 min
Bit rate : 33 b/s
Count of elements : 763
Stream size : 21.4 KiB (0%)
Title : srt
Language : English
Default : No
Forced : No

Text #3
ID : 6
Format : PGS
Muxing mode : zlib
Codec ID : S_HDMV/PGS
Codec ID/Info : Picture based subtitle format used on BDs/HD-DVDs
Duration : 1 h 28 min
Bit rate : 17.1 kb/s
Count of elements : 1622
Stream size : 10.8 MiB (0%)
Title : spa BD Acontra
Language : Spanish
Default : No
Forced : No

Text #4
ID : 7
Format : PGS
Muxing mode : zlib
Codec ID : S_HDMV/PGS
Codec ID/Info : Picture based subtitle format used on BDs/HD-DVDs
Duration : 1 h 28 min
Bit rate : 24.4 kb/s
Count of elements : 1526
Stream size : 15.4 MiB (0%)
Title : sup
Language : English
Default : No
Forced : No

Text #5
ID : 8
ID in the original source medium : 4608 (0x1200)
Format : PGS
Muxing mode : zlib
Codec ID : S_HDMV/PGS
Codec ID/Info : Picture based subtitle format used on BDs/HD-DVDs
Duration : 1 h 28 min
Bit rate : 24.4 kb/s
Count of elements : 1526
Stream size : 15.4 MiB (0%)
Language : English
Default : No
Forced : No
Original source medium : Blu-ray

Menu #1
00:00:00.000 : en:1. Opening credits
00:02:18.138 : en:2. Wedding procession
00:08:08.947 : en:3. Aboard L'Atalante
00:15:29.262 : en:4. Underwater visions
00:18:46.959 : en:5. Radio Paris
00:21:34.293 : en:6. Fog
00:24:50.948 : en:7. Dinner and sewing
00:30:16.815 : en:8. Arrival in Paris
00:31:45.612 : en:9. The treasures of Père Jules's cabin
00:39:22.151 : en:10. Broken necklace, broken date
00:48:16.185 : en:11. Dancing at the Quatres Nations
00:58:22.874 : en:12. Juliette in Paris
01:06:52.842 : en:13. Checkers and records
01:11:12.268 : en:14. Lovers' visions
01:18:32.249 : en:15. Summoned to headquarters
01:21:40.604 : en:16. Père Jules in search of Juliette
01:25:18.363 : en:17. L'Atalante, again

Menu #2
00:00:00.054 : en:00:00:00.054











Enlaces:

ed2k linked2k://|file|L'Atalante.1934.1080p.Bluray%20JPN%204k%20remast.FLAC.x264-PTP%20VOSE.mkv|13685036603|D14E538F928C2A58F0D96A02BE1EA016|h=IG6Y5MFDEDHAPG6XBIXTFELIV4NHHO2T|/ ed2k link stats


ed2k linked2k://|file|L'Atalante%201934%201080p%20BluRay%20Criterion%20FLAC%20x264-EA%20VOSE.mkv|11189316174|EE7765776AEAB5506A03285F1C76F5DA|h=S4BN7YS3RRL5USLGMJMN6GQAT3OZVMXM|/ ed2k link stats


Notas:
BDrips de tracker privado,
Añadidos subítulos españoles DVD.

Son dos montajes diferentes.



Otros ripeos:


L'Atalante (Jean Vigo, 1934) HD 720p VOSE


L'Atalante (Jean Vigo, 1934) BRRip VOSE


L'Atalante (Jean Vigo, 1934) HD 720p VOSE


L'Atalante (Jean Vigo, 1934) DVDRip VOSE

graveland
Mensajes: 837
Registrado: Vie 18 Dic, 2009 21:15

Re: L'atalante (Jean Vigo, 1934) HD 1080p VOSE

Mensaje por graveland » Mié 26 Jun, 2024 15:06

Muchas gracias, Teen.

Responder