After Tonight (George Archainbaud, 1933) SATRip VO + AE

Publica y encuentra enlaces p2p de filmes hasta 1980 en esta sección.
Responder
graveland
Mensajes: 835
Registrado: Vie 18 Dic, 2009 21:15

After Tonight (George Archainbaud, 1933) SATRip VO + AE

Mensaje por graveland » Dom 30 Oct, 2016 18:05

Rudieger (Gormogon), elquetuquieras, aguadulce, mifune y Graveland

Imagen

AFTER TONIGHT (1933)
IMDB

Imagen


Directed by
George Archainbaud

Writers:
Jane Murfin
Albert S. Le Vino

Cast:
Constance Bennett ... Carla Vanirska, aka K-14 and Karen Schöntag
Gilbert Roland ... Capt. Rudolph 'Rudy' Ritter
Edward Ellis ... Maj. Lieber
Lucien Prival ... Lt. Erlich
Ben Hendricks Jr. ... Sgt. Probert
Leonid Snegoff ... Pvt. Muller

Cinematography by
Charles Rosher

Film Editing by
William Hamilton

Art Direction by
Alfred Herman
Van Nest Polglase

Music by
Max Steiner

Imagen

Sinopsis:

Una espía rusa se enamora de un oficial austríaco durante la Primera Guerra Mundial.


Imagen

CAPTURAS:
Imagen
Imagen
Imagen
Imagen
Imagen

DATOS:
Spoiler: mostrar
General
Complete name : After Tonight (1933) TVrip.avi
Format : AVI
Format/Info : Audio Video Interleave
File size : 1 008 MiB
Duration : 1h 11mn
Overall bit rate : 1 981 Kbps
Movie name : After Tonight
Genre : Drama | Romance | War | Adaptation | WWI Drama | Pre-Code | Classics
Recorded date : November, 1933
Archival location : [CG]
Writing application : VirtualDubMod 1.5.10.2 (build 2542/release)
Writing library : VirtualDubMod build 2542/release
Comment : Encoder/Ripper:_My_Cap/TVRip_[Guild55]

Video
ID : 0
Format : MPEG-4 Visual
Format profile : Advanced Simple@L5
Format settings, BVOP : 2
Format settings, QPel : No
Format settings, GMC : No warppoints
Format settings, Matrix : Custom
Codec ID : XVID
Codec ID/Hint : XviD
Duration : 1h 11mn
Bit rate : 1 844 Kbps
Width : 640 pixels
Height : 480 pixels
Display aspect ratio : 4:3
Frame rate : 23.976 fps
Color space : YUV
Chroma subsampling : 4:2:0
Bit depth : 8 bits
Scan type : Progressive
Compression mode : Lossy
Bits/(Pixel*Frame) : 0.250
Stream size : 938 MiB (93%)
Title : Guild55
Writing library : XviD 1.2.1 (UTC 2008-12-04)

Audio
ID : 1
Format : MPEG Audio
Format version : Version 1
Format profile : Layer 3
Mode : Joint stereo
Mode extension : MS Stereo
Codec ID : 55
Codec ID/Hint : MP3
Duration : 1h 11mn
Bit rate mode : Constant
Bit rate : 128 Kbps
Channel(s) : 2 channels
Sampling rate : 48.0 KHz
Compression mode : Lossy
Stream size : 65.1 MiB (6%)
Alignment : Split accross interleaves
Interleave, duration : 42 ms (1.00 video frame)
Interleave, preload duration : 500 ms
Writing library : LAME3.99r
Encoding settings : -m j -V 4 -q 2 -lowpass 17 -b 128
Imagen
ENLACE:
DOBLAJE:
TÍTULOS DE CRÉDITO:

Rudieger (copia), elquetuquieras (sincronización del doblaje) y aguadulce (doblaje)

Avatar de Usuario
victor1949
Mensajes: 119
Registrado: Mié 02 Nov, 2011 19:51
Ubicación: Palamós/Baix Empordá

Re: After Tonight (George Archainbaud, 1933) SATRip VO + AE

Mensaje por victor1949 » Lun 31 Oct, 2016 22:27

Muchísimad grácias, graveland.

Avatar de Usuario
Jolmart
Mensajes: 892
Registrado: Vie 03 Abr, 2015 14:02

Re: After Tonight (George Archainbaud, 1933) SATRip VO + AE

Mensaje por Jolmart » Mar 01 Nov, 2016 00:42

Estas "rarezas" son impagables.
Las pelis que todo el mundo vé son fáciles de conseguir, este no es el caso.

Muchas gracias Graveland
" De USA importamos todo, hasta las mentiras ".

graveland
Mensajes: 835
Registrado: Vie 18 Dic, 2009 21:15

Re: After Tonight (George Archainbaud, 1933) SATRip VO + AE

Mensaje por graveland » Mar 01 Nov, 2016 17:04

Jolmart escribió:Estas "rarezas" son impagables.
Las pelis que todo el mundo vé son fáciles de conseguir, este no es el caso.

Muchas gracias Graveland
¡Que la disfrutes, compañero!

Avatar de Usuario
RAY72
Mensajes: 75
Registrado: Mar 01 Nov, 2022 21:15

Re: After Tonight (George Archainbaud, 1933) SATRip VO + AE

Mensaje por RAY72 » Jue 14 Mar, 2024 19:58

buenas alguno me puede ayudar con el audio en español tengo la mula parada ........ muchas gracias

Avatar de Usuario
marioguerola
Elegancia y sencillez
Mensajes: 725
Registrado: Lun 18 Abr, 2022 21:42

Re: After Tonight (George Archainbaud, 1933) SATRip VO + AE

Mensaje por marioguerola » Vie 15 Mar, 2024 17:33

RAY72 escribió:
Jue 14 Mar, 2024 19:58
buenas alguno me puede ayudar con el audio en español tengo la mula parada ........ muchas gracias
Yo creo que ya está disponible, compañero RAY72.
«Es mucho mejor dar que recibir»
(Madre Teresa de Calcuta y Mike Tyson)

Avatar de Usuario
RAY72
Mensajes: 75
Registrado: Mar 01 Nov, 2022 21:15

Re: After Tonight (George Archainbaud, 1933) SATRip VO + AE

Mensaje por RAY72 » Vie 15 Mar, 2024 18:34

gracias mario ya lo tengo

asturnauta
Mensajes: 42
Registrado: Lun 30 Abr, 2012 19:13

Re: After Tonight (George Archainbaud, 1933) SATRip VO + AE

Mensaje por asturnauta » Dom 23 Jun, 2024 13:45

Hola a todos.

Llevo varios días con la mula activada y he conseguido descargar la película, pero no veo fuentes del audio doblado.
¿Podría alguien echarme un cable?

Muchas gracias.

graveland
Mensajes: 835
Registrado: Vie 18 Dic, 2009 21:15

Re: After Tonight (George Archainbaud, 1933) SATRip VO + AE

Mensaje por graveland » Lun 24 Jun, 2024 15:29

asturnauta escribió:
Dom 23 Jun, 2024 13:45
Hola a todos.

Llevo varios días con la mula activada y he conseguido descargar la película, pero no veo fuentes del audio doblado.
¿Podría alguien echarme un cable?

Muchas gracias.
Yo mismo.

asturnauta
Mensajes: 42
Registrado: Lun 30 Abr, 2012 19:13

Re: After Tonight (George Archainbaud, 1933) SATRip VO + AE

Mensaje por asturnauta » Mar 25 Jun, 2024 16:28

graveland escribió:
Lun 24 Jun, 2024 15:29
asturnauta escribió:
Dom 23 Jun, 2024 13:45
Hola a todos.

Llevo varios días con la mula activada y he conseguido descargar la película, pero no veo fuentes del audio doblado.
¿Podría alguien echarme un cable?

Muchas gracias.
Yo mismo.
Completado y compartiendo.

Muchas gracias.

Responder