36 Hours (George Seaton, 1965) HD 720p Dual SE || 1080p Dual SE

Publica y encuentra enlaces p2p de filmes hasta 1980 en esta sección.
Avatar de Usuario
elmajete
Mensajes: 1090
Registrado: Vie 18 May, 2007 22:05

Re: 36 Hours (George Seaton, 1965) HD 720p Dual SE

Mensaje por elmajete » Sab 26 Jul, 2014 09:01

Muchas gracias Dardo.

Avatar de Usuario
WalterBurns
Mensajes: 1311
Registrado: Dom 11 Oct, 2015 15:08

Re: 36 Hours (George Seaton, 1965) HD 720p Dual SE

Mensaje por WalterBurns » Vie 09 Sep, 2016 00:56

Gracias por compartirla.

larigan
Mensajes: 667
Registrado: Dom 15 Nov, 2015 17:00

Re: 36 Hours (George Seaton, 1965) HD 720p Dual SE

Mensaje por larigan » Sab 10 Sep, 2016 00:32

Gracias

Avatar de Usuario
roisiano
Polemista nato
Mensajes: 5679
Registrado: Dom 17 Jul, 2005 02:00
Ubicación: Al final del río

36 hours (George Seaton, 1965) HD 1080p Dual SE

Mensaje por roisiano » Vie 14 Abr, 2017 13:42

36 horas (36 hours) (George Seaton, 1965)

Imagen
Imagen
Filmaffinity | IMDb

Guion: George Seaton (Historia: Roald Dahl, Luis H. Vance, Carl K. Hittleman)
Música: Dimitri Tiomkin
Fotografía: Philip H. Lathrop (B&W)
Reparto: James Garner, Eva Marie Saint, Rod Taylor, Werner Peters, John Banner, Russell Thorson, Celia Lovsky, Alan Napier, Martin Kosleck
Productora: MGM
Género: Bélico | Thriller | II Guerra Mundial | Espionaje

Sinopsis:
Segunda Guerra Mundial (1939-1945). En vísperas del desembarco de Normandía, los alemanes capturan a un oficial de los servicios de inteligencia americanos y lo someten a un lavado de cerebro: le hacen creer que la guerra ha terminado hace años para obtener información sobre los planes de los aliados. (FILMAFFINITY)



Gracias a quienes compartieron el BD 1080p.
Spoiler: mostrar
Dadas las (extrañas) circunstancias en las que actualmente parecemos movernos en el mundo p2p (en especial, en lo relativo a los trackers privados), de aquí en adelante haré "agradecimientos genéricos" a quienes compartieron la fuente original y no enlazaré a dicha fuente original en mis posts.
Disculpen las molestias
Detalles de la edición


Ripeo con esta configuración:

Código: Seleccionar todo

"C:\x264.exe" --preset veryslow --tune film --crf 19.0 --no-chroma-me --level 4.1 --output "C:\mi_ripeo.mkv" "C:\mi_script.avs"
Imagen
Imagen
Imagen
Imagen
Imagen
Imagen
Imagen
Imagen
Imagen

Código: Seleccionar todo

Format : Matroska 
Format version : Version 4 / Version 2 
File size : 10.4 GiB 
Duration : 1 h 54 min 
Overall bit rate : 13.0 Mb/s 
Writing application : mkvmerge v10.0.0 ('To Drown In You') 64bit 
Writing library : libebml v1.3.4 + libmatroska v1.4.5 

Video 
ID : 1 
Format : AVC 
Format/Info : Advanced Video Codec 
Format profile : High@L4.1 
Format settings, CABAC : Yes 
Format settings, ReFrames : 5 frames 
Codec ID : V_MPEG4/ISO/AVC 
Duration : 1 h 54 min 
Bit rate : 12.6 Mb/s 
Width : 1 920 pixels 
Height : 800 pixels 
Display aspect ratio : 2.40:1 
Frame rate mode : Constant 
Frame rate : 23.976 (24000/1001) FPS 
Color space : YUV 
Chroma subsampling : 4:2:0 
Bit depth : 8 bits 
Scan type : Progressive 
Bits/(Pixel*Frame) : 0.343 
Stream size : 10.1 GiB (97%) 
Writing library : x264 core 148 r2762 90a61ec 
Encoding settings : cabac=1 / ref=5 / deblock=1:-1:-1 / analyse=0x3:0x133 / me=umh / subme=10 / psy=1 / psy_rd=1.00:0.15 / mixed_ref=1 / me_range=24 / chroma_me=0 / trellis=2 / 8x8dct=1 / cqm=0 / deadzone=21,11 / fast_pskip=1 / chroma_qp_offset=-3 / threads=6 / lookahead_threads=1 / sliced_threads=0 / nr=0 / decimate=1 / interlaced=0 / bluray_compat=0 / constrained_intra=0 / bframes=8 / b_pyramid=2 / b_adapt=2 / b_bias=0 / direct=3 / weightb=1 / open_gop=0 / weightp=2 / keyint=250 / keyint_min=23 / scenecut=40 / intra_refresh=0 / rc_lookahead=60 / rc=crf / mbtree=1 / crf=19.0 / qcomp=0.60 / qpmin=0 / qpmax=69 / qpstep=4 / ip_ratio=1.40 / aq=1:1.00 
Language : English 
Default : Yes 
Forced : No 

Audio #1 
ID : 2 
Format : AAC 
Format/Info : Advanced Audio Codec 
Format profile : LC 
Codec ID : A_AAC 
Duration : 1 h 54 min 
Bit rate : 132 kb/s 
Channel(s) : 2 channels 
Channel positions : Front: L R 
Sampling rate : 48.0 kHz 
Frame rate : 46.875 FPS (1024 spf) 
Compression mode : Lossy 
Stream size : 107 MiB (1%) 
Language : English 
Writing library : qaac 2.62, CoreAudioToolbox 7.10.9.0
Encoding settings : qaac -V 127 --ignorelength --adts --no-delay -o
VBR min./avg./max. : 4 / 132 / 271 Kb/s. 
Duration.......... : 6882.944 sec., (1h. 54m. 42.944s.)
Default : Yes 
Forced : No 

Audio #2 
ID : 3 
Format : AC-3 
Format/Info : Audio Coding 3 
Format settings, Endianness : Big 
Codec ID : A_AC3 
Duration : 1 h 54 min 
Bit rate mode : Constant 
Bit rate : 192 kb/s 
Channel(s) : 2 channels 
Channel positions : Front: L R 
Sampling rate : 48.0 kHz 
Frame rate : 31.250 FPS (1536 spf) 
Bit depth : 16 bits 
Compression mode : Lossy 
Stream size : 158 MiB (1%) 
Title : Doblaje 
Language : Spanish 
Service kind : Complete Main 
Default : No 
Forced : No 

Text #1 
ID : 4 
Format : UTF-8 
Codec ID : S_TEXT/UTF8 
Codec ID/Info : UTF-8 Plain Text 
Duration : 1 h 52 min 
Bit rate : 52 b/s 
Count of elements : 1272 
Stream size : 43.1 KiB (0%) 
Language : Spanish 
Default : Yes 
Forced : No 

Text #2 
ID : 5 
Format : UTF-8 
Codec ID : S_TEXT/UTF8 
Codec ID/Info : UTF-8 Plain Text 
Duration : 1 h 52 min 
Bit rate : 59 b/s 
Count of elements : 1412 
Stream size : 48.6 KiB (0%) 
Language : English 
Default : No 
Forced : No 

Text #3 
ID : 6 
Format : UTF-8 
Codec ID : S_TEXT/UTF8 
Codec ID/Info : UTF-8 Plain Text 
Duration : 1 h 53 min 
Bit rate : 60 b/s 
Count of elements : 1490 
Stream size : 50.0 KiB (0%) 
Title : H.I. 
Language : English 
Default : No 
Forced : No 

Text #4 
ID : 7 
Format : UTF-8 
Codec ID : S_TEXT/UTF8 
Codec ID/Info : UTF-8 Plain Text 
Duration : 1 h 21 min 
Bit rate : 0 b/s 
Count of elements : 9 
Stream size : 261 Bytes (0%) 
Title : Forzados 
Language : Spanish 
Default : No 
Forced : Yes 

Text #5 
ID : 8 
Format : VobSub 
Muxing mode : zlib 
Codec ID : S_VOBSUB 
Codec ID/Info : Picture based subtitle format used on DVDs 
Duration : 1 h 53 min 
Bit rate : 6 236 b/s 
Count of elements : 1511 
Stream size : 5.06 MiB (0%) 
Title : English Vobsubs (H.I.) 
Language : English 
Default : No 
Forced : No 

Menu 
00:00:00.000 : en:00:00:00.000 
00:02:30.275 : en:00:02:30.275 
00:06:56.875 : en:00:06:56.875 
00:09:40.580 : en:00:09:40.580 
00:12:49.435 : en:00:12:49.435 
00:15:22.046 : en:00:15:22.046 
00:19:30.336 : en:00:19:30.336 
00:22:20.798 : en:00:22:20.798 
00:25:50.674 : en:00:25:50.674 
00:28:46.934 : en:00:28:46.934 
00:31:05.572 : en:00:31:05.572 
00:34:06.753 : en:00:34:06.753 
00:38:26.638 : en:00:38:26.638 
00:40:41.230 : en:00:40:41.230 
00:43:42.912 : en:00:43:42.912 
00:48:38.374 : en:00:48:38.374 
00:53:57.693 : en:00:53:57.693 
00:56:57.539 : en:00:56:57.539 
00:58:59.161 : en:00:58:59.161 
01:03:11.413 : en:01:03:11.413 
01:07:58.324 : en:01:07:58.324 
01:13:01.002 : en:01:13:01.002 
01:17:30.437 : en:01:17:30.437 
01:21:09.073 : en:01:21:09.073 
01:25:08.437 : en:01:25:08.437 
01:30:22.083 : en:01:30:22.083 
01:35:41.945 : en:01:35:41.945 
01:38:19.060 : en:01:38:19.060 
01:43:20.403 : en:01:43:20.403 
01:46:13.701 : en:01:46:13.701 
01:49:25.142 : en:01:49:25.142 
01:52:00.255 : en:01:52:00.255 
01:54:10.343 : en:01:54:10.343




:arrow: BDRip Dual (V.O. - doblaje en castellano) 1080p, con subtítulos en español e inglés en el contenedor MKV (10.39 GBs)

:arrow: Subtítulos por separado
, por si alguien los necesita para... (115 KBs)


:arrow: Cómo buscar archivos en emule. Necesario para buscar lo anterior...



Los subtítulos en castellano fueron tomados de robertobe, para un ripeo de rodosky (proteinicos), y levemente corregidos y resincronizados para este ripeo.
El doblaje fue tomado de dicho ripeo de rodosky (proteinicos).
Muchas gracias a ambos.


La calidad del BD mejora ampliamente lo disponible hasta la fecha, por lo que entiendo que el upgrade es recomendable.


----------------------------------------------------


Imagen Imagen

Última versión del codec x264 (inglés) | Web en español sobre el codec x264
Manual de ripeo con x264 en línea de comandos (español) | Parámetros de codificación (inglés)
Contenedor Matroska (español) | Matroska en wikipedia (español): software de PC compatible, etc.
MKVToolnix, herramientas de edición para matroska (inglés) | Añadir cadenas de audio o subtítulos con MKVToolnix (español)
MKVExtractGui | Manual de extracción de cadenas de audio/vídeo/subtítulos en MKV (español)
Cómo crear BDRips MKV/x264 1080p o 1080p (español) | Guía avanzada para crear DVDRips MKV/x264 paso a paso (inglés)
Florentino, fíchame.
Por 6.000 € netos mensuales te convierto en el mejor presidente de la historia.

Avatar de Usuario
eulsus
Mensajes: 2589
Registrado: Vie 18 May, 2007 10:41

Re: 36 Hours (George Seaton, 1965) HD 720p Dual SE

Mensaje por eulsus » Vie 14 Abr, 2017 14:44

Muchísimas gracias, roisiano. Eres una de las personas con mejor criterio a la hora de publicar nuevos ripeos de películas que ya circulan por la red, haciéndolo sólo cuando va a suponer una mejora evidente.
Imagen
Antonio García-Trevijano Forte (1927-2018)
"Para que yo sea libre, todos tienen que ser libres"

Abstención activa hasta que haya Libertad Colectiva

Avatar de Usuario
ostrata
Mensajes: 2792
Registrado: Mié 24 Mar, 2010 17:29

Re: 36 Hours (George Seaton, 1965) HD 720p Dual SE

Mensaje por ostrata » Vie 14 Abr, 2017 17:27

Gracias. :)

Saludos.

Avatar de Usuario
janca
Mensajes: 2349
Registrado: Dom 20 Dic, 2009 09:31

Re: 36 Hours (George Seaton, 1965) HD 720p Dual SE

Mensaje por janca » Vie 14 Abr, 2017 20:33

Muchas gracias Roisiano

Avatar de Usuario
paizoco
Mensajes: 2912
Registrado: Vie 21 Nov, 2003 01:00
Ubicación: Far West

Re: 36 Hours (George Seaton, 1965) HD 720p Dual SE

Mensaje por paizoco » Vie 14 Abr, 2017 22:54

Me apunto, muchas gracias roisiano

Avatar de Usuario
miguel_HammerFilms
Mensajes: 1384
Registrado: Vie 18 May, 2007 11:23

Re: 36 Hours (George Seaton, 1965) HD 720p Dual SE

Mensaje por miguel_HammerFilms » Dom 16 Abr, 2017 19:02

Voy ahora, gracias roi :D
Imagen

Avatar de Usuario
Dardo
Arrow Thrower Clown
Mensajes: 18140
Registrado: Dom 19 Oct, 2003 02:00
Ubicación: Entre Encinas y Dolomías

Re: 36 Hours (George Seaton, 1965) HD 720p Dual SE || 1080p Dual SE

Mensaje por Dardo » Lun 17 Abr, 2017 13:08

Una de mis película favoritas, el argumento siempre me ha parecido de los más originales y la película es llevada con ritmo, buenas interpretaciones, en fin todo redondo.

Subo el ripeo a la portada del hilo. :wink:

Os dejo una comparativa del BDRip publicado por Roisiano y del HDTV que en su día compartí:
Imagen

Imagen

Avatar de Usuario
Satori
Mensajes: 423
Registrado: Jue 31 Mar, 2022 16:16

Re: 36 Hours (George Seaton, 1965) HD 720p Dual SE || 1080p Dual SE

Mensaje por Satori » Sab 25 Jun, 2022 20:47

Muchas Gracias!!

Descargando el trabajo roisianico...

Avatar de Usuario
Ogra
Mensajes: 112
Registrado: Vie 17 Nov, 2023 15:21

Re: 36 Hours (George Seaton, 1965) HD 720p Dual SE || 1080p Dual SE

Mensaje por Ogra » Dom 21 Abr, 2024 10:39

Buenas alguno podéis subir otra vez el ripeo de roi en su día se me paso y tengo una copia muy mala... Muchas gracias

Avatar de Usuario
marioguerola
Elegancia y sencillez
Mensajes: 682
Registrado: Lun 18 Abr, 2022 21:42

Re: 36 Hours (George Seaton, 1965) HD 720p Dual SE || 1080p Dual SE

Mensaje por marioguerola » Dom 21 Abr, 2024 10:51

Ogra escribió:
Dom 21 Abr, 2024 10:39
Buenas alguno podéis subir otra vez el ripeo de roi en su día se me paso y tengo una copia muy mala... Muchas gracias
Hola Ogra, pongo en lanzamiento el montaje roisiano de 36 Hours:

enlace:


Un saludito.
«Es mucho mejor dar que recibir»
(Madre Teresa de Calcuta y Mike Tyson)

Avatar de Usuario
Ogra
Mensajes: 112
Registrado: Vie 17 Nov, 2023 15:21

Re: 36 Hours (George Seaton, 1965) HD 720p Dual SE || 1080p Dual SE

Mensaje por Ogra » Dom 21 Abr, 2024 11:11

Gracias marioguerola estoy con ello un saludo y buen fin de semana

Avatar de Usuario
Spanish Jhonny
Mensajes: 3706
Registrado: Mar 18 Sep, 2012 16:01

Re: 36 Hours (George Seaton, 1965) HD 720p Dual SE || 1080p Dual SE

Mensaje por Spanish Jhonny » Dom 21 Abr, 2024 11:46

Aprovecho para apuntarme, no lo hice en su momento.
Muchas gracias roisiano, robertobe, rodosky y marioguerola :yes:

Avatar de Usuario
Dardo
Arrow Thrower Clown
Mensajes: 18140
Registrado: Dom 19 Oct, 2003 02:00
Ubicación: Entre Encinas y Dolomías

Re: 36 Hours (George Seaton, 1965) HD 720p Dual SE || 1080p Dual SE

Mensaje por Dardo » Dom 21 Abr, 2024 13:39

Una de mis películas favoritas. :yes:

Responder