Die Bande des Schreckens (Harald Reinl) 1960 HD 1080p Trial SE

Publica y encuentra enlaces p2p de filmes hasta 1980 en esta sección.
Responder
Avatar de Usuario
Satori
Mensajes: 423
Registrado: Jue 31 Mar, 2022 16:16

Die Bande des Schreckens (Harald Reinl) 1960 HD 1080p Trial SE

Mensaje por Satori » Vie 12 Abr, 2024 09:46

Die Bande des Schreckens
(La banda del terror)

Harald Reinl
1960


Imagen





Imagen


Ficha artística

Título original: Die Bande des Schreckens
Año: 1960
Duración: 88 min.
País: Alemania del Oeste (RFA)
Dirección: Harald Reinl
Guion: J. Joachim Bartsch, Wolfgang Schnitzler. Novela: Edgar Wallace
Música: Heinz Funk
Fotografía: Albert Benitz
Reparto: Joachim Fuchsberger. Karin Dor. Fritz Rasp. Dieter Eppler. Ulrich Beiger. Eddi Arent
Compañías: Rialto Film. Distribuidora: Constantin Film
Género: Thriller | Krimi

Sinopsis: Un ladrón de bancos, Clay Shelton, es sentenciado a muerte por el asesinato de uno de los policías que le detuvo. Instantes antes de ser ahorcado, profetiza que todos los que tuvieren alguna relación con su muerte serán a su vez ejecutados por él quien llama “El brazo de la Horca”. Nadie se toma en serio sus palabras, pero poco tiempo después se producen varios accidentes mortales, y perecen el fiscal que lo acusó, el juez que le condenó y el verdugo que le ejecutó. Algunos testigos señalan la presencia de un desconocido con la mano alzada en forma de garra, exactamente como Shelton había predicho. Otros afirman haber reconocido al mismo Shelton. ¿Se trata de su fantasma o de un doble? Mientras el pánico se extiende entre el resto de los supervivientes, el inspector Long está seguro de que las muertes tienen un origen racional y no sobrenatural, y para asegurarse abre la tumba de Shelton...


Filmaffinity - IMDb


Imagen


Video

BDRemux 1080p x264 del blu-ray germano editado por Tobis, procedente de rutracker


Audio Trial

- Alemán del mismo origen que el video, convertido a AAC para reducir peso
- Inglés del mismo origen que el video, e igualmente convertido a AAC
- En español castellano el excelente Doblaje para su estreno en cines en 1962. La pista se ha obtenido de ok.ru, cuyo video parece provenir de una grabación de una emisión televisiva, con algunos cortes y repetición de una misma imagen. Se ha convertido a la velocidad del Remux y se ha resincronizado, habiendo tenido que hacer algún inserto de la V.O. para solventar los cortes, afortunadamente en tramos sin apenas repercusión en el doblaje a excepción de la secuencia de la lancha



Subtítulos

- En inglés de la misma fuente que el video
- En alemán de la misma fuente que el video
- En español completos los de Anubis para noirstyle, adaptándolos a este video y completándolos con la traducción de algunos rótulos y mensajes. Se han creado unos subtítulos forzados para los mencionados carteles y para resolver la frase sin doblaje



(Agradecimientos a quienes compartieron los diferentes elementos y su trabajo, haciendo posible este montaje)






Datos técnicos

Código: Seleccionar todo

General
Unique ID                                : 299665401358717568037738971099832710261 (0xE17174FC77D4E3BDF7BD8C9A9242F475)
Complete name                            : Die Bande des Schreckens. La banda del terror. Harald Reinl. 1960. BDRemux 1080p x264. Trial Esp-Ger-Eng. Subt. by Satori.mkv
Format                                   : Matroska
Format version                           : Version 4
File size                                : 17.8 GiB
Duration                                 : 1 h 31 min
Overall bit rate mode                    : Variable
Overall bit rate                         : 27.7 Mb/s
Frame rate                               : 24.000 FPS
Encoded date                             : 2024-04-11 17:09:56 UTC
Writing application                      : mkvmerge v82.0 ('I'm The President') 64-bit
Writing library                          : libebml v1.4.5 + libmatroska v1.7.1
Cover                                    : Yes
Attachments                              : cover.jpg

Video
ID                                       : 1
Format                                   : AVC
Format/Info                              : Advanced Video Codec
Format profile                           : High@L4.1
Format settings                          : CABAC / 4 Ref Frames
Format settings, CABAC                   : Yes
Format settings, Reference frames        : 4 frames
Format settings, Slice count             : 4 slices per frame
Codec ID                                 : V_MPEG4/ISO/AVC
Duration                                 : 1 h 31 min
Bit rate mode                            : Variable
Bit rate                                 : 26.9 Mb/s
Maximum bit rate                         : 38.0 Mb/s
Width                                    : 1 920 pixels
Height                                   : 1 080 pixels
Display aspect ratio                     : 16:9
Frame rate mode                          : Constant
Frame rate                               : 24.000 FPS
Color space                              : YUV
Chroma subsampling                       : 4:2:0
Bit depth                                : 8 bits
Scan type                                : Progressive
Bits/(Pixel*Frame)                       : 0.541
Time code of first frame                 : 00:59:59:06
Stream size                              : 17.3 GiB (97%)
Title                                    : Die Bande des Schreckens (1960)
Language                                 : German
Default                                  : Yes
Forced                                   : No

Audio #1
ID                                       : 2
Format                                   : AAC LC
Format/Info                              : Advanced Audio Codec Low Complexity
Codec ID                                 : 2 / A_AAC-2
Duration                                 : 1 h 31 min
Bit rate                                 : 259 kb/s
Channel(s)                               : 2 channels
Channel layout                           : L R
Sampling rate                            : 48.0 kHz
Frame rate                               : 46.875 FPS (1024 SPF)
Compression mode                         : Lossy
Stream size                              : 170 MiB (1%)
Title                                    : Doblaje Cines 1962
Language                                 : Spanish
Default                                  : Yes
Forced                                   : No

Audio #2
ID                                       : 3
Format                                   : AAC LC
Format/Info                              : Advanced Audio Codec Low Complexity
Codec ID                                 : 2 / A_AAC-2
Duration                                 : 1 h 31 min
Bit rate                                 : 242 kb/s
Channel(s)                               : 2 channels
Channel layout                           : L R
Sampling rate                            : 48.0 kHz
Frame rate                               : 46.875 FPS (1024 SPF)
Compression mode                         : Lossy
Stream size                              : 159 MiB (1%)
Title                                    : Alemán
Language                                 : German
Default                                  : No
Forced                                   : No

Audio #3
ID                                       : 4
Format                                   : AAC LC
Format/Info                              : Advanced Audio Codec Low Complexity
Codec ID                                 : 2 / A_AAC-2
Duration                                 : 1 h 31 min
Bit rate                                 : 249 kb/s
Channel(s)                               : 2 channels
Channel layout                           : L R
Sampling rate                            : 48.0 kHz
Frame rate                               : 46.875 FPS (1024 SPF)
Compression mode                         : Lossy
Stream size                              : 164 MiB (1%)
Title                                    : Inglés
Language                                 : English
Default                                  : No
Forced                                   : No

Text #1
ID                                       : 5
Format                                   : UTF-8
Codec ID                                 : S_TEXT/UTF8
Codec ID/Info                            : UTF-8 Plain Text
Duration                                 : 1 h 3 min
Bit rate                                 : 0 b/s
Frame rate                               : 0.002 FPS
Count of elements                        : 8
Stream size                              : 301 Bytes (0%)
Title                                    : Español forzados
Language                                 : Spanish
Default                                  : Yes
Forced                                   : No

Text #2
ID                                       : 6
Format                                   : UTF-8
Codec ID                                 : S_TEXT/UTF8
Codec ID/Info                            : UTF-8 Plain Text
Duration                                 : 1 h 30 min
Bit rate                                 : 68 b/s
Frame rate                               : 0.161 FPS
Count of elements                        : 868
Stream size                              : 45.0 KiB (0%)
Title                                    : Español completos
Language                                 : Spanish
Default                                  : No
Forced                                   : No

Text #3
ID                                       : 7
Format                                   : UTF-8
Codec ID                                 : S_TEXT/UTF8
Codec ID/Info                            : UTF-8 Plain Text
Duration                                 : 1 h 30 min
Bit rate                                 : 66 b/s
Frame rate                               : 0.156 FPS
Count of elements                        : 843
Stream size                              : 44.1 KiB (0%)
Title                                    : Inglés
Language                                 : English
Default                                  : No
Forced                                   : No

Text #4
ID                                       : 8
Format                                   : PGS
Muxing mode                              : zlib
Codec ID                                 : S_HDMV/PGS
Codec ID/Info                            : Picture based subtitle format used on BDs/HD-DVDs
Duration                                 : 1 h 30 min
Bit rate                                 : 35.7 kb/s
Frame rate                               : 0.312 FPS
Count of elements                        : 1687
Stream size                              : 23.0 MiB (0%)
Title                                    : Inglés
Language                                 : English
Default                                  : No
Forced                                   : No

Text #5
ID                                       : 9
Format                                   : UTF-8
Codec ID                                 : S_TEXT/UTF8
Codec ID/Info                            : UTF-8 Plain Text
Duration                                 : 1 h 31 min
Bit rate                                 : 69 b/s
Frame rate                               : 0.161 FPS
Count of elements                        : 884
Stream size                              : 46.7 KiB (0%)
Title                                    : Alemán
Language                                 : German
Default                                  : No
Forced                                   : No

Text #6
ID                                       : 10
Format                                   : PGS
Muxing mode                              : zlib
Codec ID                                 : S_HDMV/PGS
Codec ID/Info                            : Picture based subtitle format used on BDs/HD-DVDs
Duration                                 : 1 h 31 min
Bit rate                                 : 37.5 kb/s
Frame rate                               : 0.322 FPS
Count of elements                        : 1767
Stream size                              : 24.6 MiB (0%)
Title                                    : Alemán
Language                                 : German
Default                                  : No
Forced                                   : No

Menu
00:00:00.000                             : en:00:00:00.000
00:07:13.917                             : en:00:07:13.917
00:15:42.750                             : en:00:15:42.750
00:22:58.333                             : en:00:22:58.333
00:29:07.917                             : en:00:29:07.917
00:36:58.042                             : en:00:36:58.042
00:50:58.083                             : en:00:50:58.083
00:58:19.667                             : en:00:58:19.667
01:05:07.375                             : en:01:05:07.375
01:17:35.083                             : en:01:17:35.083



Capturas del montaje
Imagen


Imagen


Imagen


Imagen


Imagen


Imagen

Enlace de descarga


Anteriormente en DXC:
Die Bande des Schreckens (Harald Reinl, 1960) DVDRip VOSI

Cine krimi en HD en DXC:
Der Frosch mit der Maske (Harald Reinl) 1959 HD 1080p Trial SE
Der rote Kreis (Jürgen Roland) 1960 HD 1080p Trial SE
Die seltsame Gräfin (Josef von Báky) 1961 HD 1080p Trial SE
Die Bande des Schreckens (Harald Reinl) 1960 HD 1080p Trial SE
Der Fälscher von London (Harald Reinl) 1961 BDRip 432p / HD 1080p Dual SE
Die toten Augen von London (Alfred Vohrer) 1961 HD 1080p Dual SE
Das Geheimnis der gelben Narzissen (Ákos Ráthonyi) 1961 HD 1080p Dual SE
Die Tür mit den 7 Schlössern (Alfred Vohrer) 1962 HD 1080p Trial SE
Das Rätsel der roten Orchidee (Helmut Ashley) 1962 HD 1080p Trial SE
Das indische Tuch (Alfred Vohrer) 1963 HD 1080p Trial SE
Der Zinker (Alfred Vohrer) 1963 HD 720p Trial SE
Der Hexer (Alfred Vohrer) 1964 HD 1080p Trial SE
Neues vom Hexer (Alfred Vohrer) 1965 HD 1080p Dual SE
Der unheimliche Mönch (Harald Reinl) 1965 HD 1080p Trial SE
Das Geheimnis der weissen Nonne (The Trygon Factor) (Cyril Frankel) 1966 HD 1080
Im Banne des Unheimlichen (Alfred Vohrer) 1968 HD 1080p Dual SE
Última edición por Satori el Mié 17 Abr, 2024 10:20, editado 3 veces en total.

Avatar de Usuario
Ogra
Mensajes: 112
Registrado: Vie 17 Nov, 2023 15:21

Re: Die Bande des Schreckens (Harald Reinl) 1960 HD 1080p Trial SE

Mensaje por Ogra » Vie 12 Abr, 2024 10:23

Gracias Satori esto es una locura 😁😁 y seguimos sumando... Estupenda labor

Avatar de Usuario
mith34
Mensajes: 530
Registrado: Dom 10 Ene, 2010 13:10
Ubicación: Áqaba

Re: Die Bande des Schreckens (Harald Reinl) 1960 HD 1080p Trial SE

Mensaje por mith34 » Sab 13 Abr, 2024 11:28

Muchas gracias, Satori! :plas: :plas: :plas:

Saludos.

Avatar de Usuario
carrido
Mensajes: 762
Registrado: Mié 19 Feb, 2014 15:58
Ubicación: Freedonia

Re: Die Bande des Schreckens (Harald Reinl) 1960 HD 1080p Trial SE

Mensaje por carrido » Mar 30 Abr, 2024 19:15

Muchisimas gracias Satori; otra pelicula mas de la saga Thriller Krimi/Alemana.


:plas: :plas: :plas: :plas: :plas:
Carrido

Responder