The Private Affairs of Bel Ami (Albert Lewin, 1947) HD 720p Dual SE

Publica y encuentra enlaces p2p de filmes hasta 1980 en esta sección.
Responder
Avatar de Usuario
DMMD
Mensajes: 1960
Registrado: Lun 27 Feb, 2012 14:16

The Private Affairs of Bel Ami (Albert Lewin, 1947) HD 720p Dual SE

Mensaje por DMMD » Sab 12 Nov, 2016 11:46

Imagen


Imagen


Los asuntos privados de Bel Ami




Título original
The Private Affairs of Bel Ami

Año
1947

Duración
112 min.

País Imagen
Director
Albert Lewin

Guión
Albert Lewin (Novela: Guy de Maupassant)

Música
Darius Milhaud

Fotografía
Russell Metty

Reparto
George Sanders, Angela Lansbury, Ann Dvorak, John Carradine, Susan Douglas, Hugo Haas, Frances Dee

Productora
United Artists

Género
Drama

Sinopsis
El escritor Georges Duroy (George Sanders) pasa por un momento difícil cuando se encuentra con su antiguo compañero de regimiento, Charles Forestier, quien le invita a trabajar con él en su periódico. Duroy no tarda en hacerse un lugar con la ayuda de Madeleine Forestier (Ann Dvorak), la esposa de Charles, y pronto tendrá tiempo para dedicarse a enamorar a mujeres bien posicionadas, con lo que se abrirá paso en el éxito que tanto ansía. (FILMAFFINITY)



Blu-ray (Olive Films ) Vs Encode 720p

Imagen Imagen Imagen Imagen Imagen Imagen Imagen Imagen Imagen Imagen Imagen Imagen

Código: Seleccionar todo

General
Unique ID                                : 193677902259933435841311446918325549363 (0x91B501D4C4ED29998D368646A3933933)
Complete name                            : C:\Program Files (x86)\eMule\Incoming\1947-The.Private.Affairs.of.Bel.Ami.BRx264.720p.AAC.AC3[DMMD].mkv
Format                                   : Matroska
Format version                           : Version 4 / Version 2
File size                                : 7.38 GiB
Duration                                 : 1 h 51 min
Overall bit rate                         : 9 450 kb/s
Movie name                               : 1947-The.Private.Affairs.of.Bel.Ami.BRx264.720p.AAC.AC3[DMMD]
Encoded date                             : UTC 2016-11-12 10:07:47
Writing application                      : mkvmerge v9.0.1 ('Obstacles') 64bit
Writing library                          : libebml v1.3.3 + libmatroska v1.4.4
Attachments                              : 2 / 1

Video
ID                                       : 1
Format                                   : AVC
Format/Info                              : Advanced Video Codec
Format profile                           : High@L4.1
Format settings, CABAC                   : Yes
Format settings, ReFrames                : 11 frames
Codec ID                                 : V_MPEG4/ISO/AVC
Duration                                 : 1 h 51 min
Bit rate                                 : 9 054 kb/s
Width                                    : 964 pixels
Height                                   : 720 pixels
Display aspect ratio                     : 4:3
Frame rate mode                          : Constant
Frame rate                               : 23.976 (24000/1001) FPS
Color space                              : YUV
Chroma subsampling                       : 4:2:0
Bit depth                                : 8 bits
Scan type                                : Progressive
Bits/(Pixel*Frame)                       : 0.544
Stream size                              : 7.07 GiB (96%)
Writing library                          : x264 core 148 r2638kMod 7599210
Encoding settings                        : cabac=1 / ref=11 / deblock=1:-3:-3 / analyse=0x3:0x133 / me=umh / subme=11 / psy=1 / fade_compensate=0.00 / psy_rd=1.15:0.00 / mixed_ref=1 / me_range=32 / chroma_me=1 / trellis=2 / 8x8dct=1 / cqm=0 / deadzone=21,11 / fast_pskip=0 / chroma_qp_offset=-2 / threads=6 / lookahead_threads=1 / sliced_threads=0 / nr=0 / decimate=0 / interlaced=0 / bluray_compat=0 / constrained_intra=0 / fgo=0 / bframes=11 / b_pyramid=2 / b_adapt=2 / b_bias=0 / direct=3 / weightb=1 / open_gop=0 / weightp=2 / keyint=250 / keyint_min=23 / scenecut=40 / intra_refresh=0 / rc=crf / mbtree=0 / crf=18.8000 / qcomp=0.62 / qpmin=0 / qpmax=69 / qpstep=4 / ip_ratio=1.40 / pb_ratio=1.30 / aq=1:0.50
Language                                 : English
Default                                  : Yes
Forced                                   : No

Audio #1
ID                                       : 2
Format                                   : AAC
Format/Info                              : Advanced Audio Codec
Format profile                           : LC
Codec ID                                 : A_AAC
Duration                                 : 1 h 51 min
Bit rate                                 : 198 kb/s
Channel(s)                               : 2 channels
Channel positions                        : Front: L R
Sampling rate                            : 48.0 kHz
Frame rate                               : 46.875 FPS (1024 spf)
Compression mode                         : Lossy
Delay relative to video                  : 9 ms
Stream size                              : 158 MiB (2%)
Language                                 : English
Default                                  : Yes
Forced                                   : No

Audio #2
ID                                       : 3
Format                                   : AC-3
Format/Info                              : Audio Coding 3
Mode extension                           : CM (complete main)
Format settings, Endianness              : Big
Codec ID                                 : A_AC3
Duration                                 : 1 h 51 min
Bit rate mode                            : Constant
Bit rate                                 : 192 kb/s
Channel(s)                               : 2 channels
Channel positions                        : Front: L R
Sampling rate                            : 48.0 kHz
Frame rate                               : 31.250 FPS (1536 spf)
Bit depth                                : 16 bits
Compression mode                         : Lossy
Stream size                              : 154 MiB (2%)
Language                                 : Spanish
Default                                  : No
Forced                                   : No

Text #1
ID                                       : 4
Format                                   : UTF-8
Codec ID                                 : S_TEXT/UTF8
Codec ID/Info                            : UTF-8 Plain Text
Duration                                 : 1 h 50 min
Bit rate                                 : 67 b/s
Count of elements                        : 1412
Stream size                              : 54.5 KiB (0%)
Language                                 : Spanish
Default                                  : Yes
Forced                                   : No

Text #2
ID                                       : 5
Format                                   : UTF-8
Codec ID                                 : S_TEXT/UTF8
Codec ID/Info                            : UTF-8 Plain Text
Duration                                 : 54 min 4 s
Bit rate                                 : 2 b/s
Count of elements                        : 36
Stream size                              : 885 Bytes (0%)
Title                                    : Forzados
Language                                 : Spanish
Default                                  : No
Forced                                   : No

Text #3
ID                                       : 6
Format                                   : VobSub
Muxing mode                              : zlib
Codec ID                                 : S_VOBSUB
Codec ID/Info                            : Picture based subtitle format used on DVDs
Duration                                 : 1 h 50 min
Bit rate                                 : 4 678 b/s
Count of elements                        : 1781
Stream size                              : 3.70 MiB (0%)
Language                                 : English
Default                                  : No
Forced                                   : No

Menu
00:00:00.000                             : en:Chapter 1
00:08:11.500                             : en:Chapter 2
00:21:52.434                             : en:Chapter 3
00:36:00.134                             : en:Chapter 4
00:50:21.868                             : en:Chapter 5
01:04:47.435                             : en:Chapter 6
01:20:26.968                             : en:Chapter 7
01:38:10.435                             : en:Chapter 8
01:51:51.102                             : en:Chapter 9





BR 720p Vs Dvd (Olive Films) Vs Dvd (Wild Side)

Imagen
Imagen
Imagen



Imagen



CAPTURAS

Imagen
Imagen
Imagen
Imagen
Imagen
Imagen
Imagen



Enlaces de descarga

Imagen

ed2k link1947-The.Private.Affairs.of.Bel.Ami.BRx264.720p.AAC.AC3(DMMD).mkv ed2k link stats



Otras opciones en DXC:

La vida privada de Bel Ami (Albert Lewin, 1946) VHSRip VE / SATRip VO

La vida privada de Bel Ami (Albert Lewin, 1947) DVDRip Dual SE
Última edición por DMMD el Sab 12 Nov, 2016 14:00, editado 1 vez en total.

Avatar de Usuario
ostrata
Mensajes: 2735
Registrado: Mié 24 Mar, 2010 17:29

Re: The Private Affairs of Bel Ami (Albert Lewin, 1948) HD 720p Dual SE

Mensaje por ostrata » Sab 12 Nov, 2016 12:45

Gracias. :)

Saludos.

Avatar de Usuario
Spanish Jhonny
Mensajes: 3665
Registrado: Mar 18 Sep, 2012 16:01

Re: The Private Affairs of Bel Ami (Albert Lewin, 1947) HD 720p Dual SE

Mensaje por Spanish Jhonny » Sab 12 Nov, 2016 14:32

Me apunto
Muchas gracias ;)

Avatar de Usuario
paizoco
Mensajes: 2912
Registrado: Vie 21 Nov, 2003 01:00
Ubicación: Far West

Re: The Private Affairs of Bel Ami (Albert Lewin, 1947) HD 720p Dual SE

Mensaje por paizoco » Sab 12 Nov, 2016 17:00

Me apunto, muchas gracias DMMD

Avatar de Usuario
WalterBurns
Mensajes: 1294
Registrado: Dom 11 Oct, 2015 15:08

Re: The Private Affairs of Bel Ami (Albert Lewin, 1947) HD 720p Dual SE

Mensaje por WalterBurns » Dom 13 Nov, 2016 00:48

Gracias por compartirla.

Avatar de Usuario
elmajete
Mensajes: 1085
Registrado: Vie 18 May, 2007 22:05

Re: The Private Affairs of Bel Ami (Albert Lewin, 1947) HD 720p Dual SE

Mensaje por elmajete » Dom 13 Nov, 2016 10:07

Muchas gracias DMMD

felipemarlou
Mensajes: 529
Registrado: Lun 07 Oct, 2013 15:18

Re: The Private Affairs of Bel Ami (Albert Lewin, 1947) HD 720p Dual SE

Mensaje por felipemarlou » Dom 13 Nov, 2016 11:41

The world is yours. Thanks DMMD.

Avatar de Usuario
waldolydecker
Mensajes: 278
Registrado: Mié 18 Feb, 2015 04:29

Re: The Private Affairs of Bel Ami (Albert Lewin, 1947) HD 720p Dual SE

Mensaje por waldolydecker » Dom 13 Nov, 2016 14:33

Vaya calidad de imagen!
Muchas gracias, DMMD

Avatar de Usuario
janca
Mensajes: 2305
Registrado: Dom 20 Dic, 2009 09:31

Re: The Private Affairs of Bel Ami (Albert Lewin, 1947) HD 720p Dual SE

Mensaje por janca » Dom 13 Nov, 2016 18:12

Gracias DMMD

Avatar de Usuario
Forrest Gump
Mensajes: 1765
Registrado: Vie 18 May, 2007 18:06
Ubicación: Zihuatanejo

Re: The Private Affairs of Bel Ami (Albert Lewin, 1947) HD 720p Dual SE

Mensaje por Forrest Gump » Lun 14 Nov, 2016 07:05

Esperadísimo upgrade. Millón de gracias por el estupendo obsequio, DMMD. :plas: :plas: :plas:
Made it, Ma, top of the world!

Avatar de Usuario
Brateh
Amante del Cine
Mensajes: 454
Registrado: Sab 31 Jul, 2010 05:37
Ubicación: Argentina

Re: The Private Affairs of Bel Ami (Albert Lewin, 1947) HD 720p Dual SE

Mensaje por Brateh » Lun 14 Nov, 2016 21:13

Me apunto, ¡Muchas gracias DMMD!
:plas: :plas: :plas:
Alta Definición es una necesidad... Bienvenida sea!!

Avatar de Usuario
rcortijo
Mensajes: 1254
Registrado: Mié 27 Ago, 2003 02:00

Re: The Private Affairs of Bel Ami (Albert Lewin, 1947) HD 720p Dual SE

Mensaje por rcortijo » Dom 30 Sep, 2018 09:57

Hola. Tengo pinchada esta desde hace una semana. Y sólo me falta el último empujoncito: atascado en el 99,2 %.

Muchas gracias, DMMD.

Avatar de Usuario
rcortijo
Mensajes: 1254
Registrado: Mié 27 Ago, 2003 02:00

Re: The Private Affairs of Bel Ami (Albert Lewin, 1947) HD 720p Dual SE

Mensaje por rcortijo » Dom 30 Sep, 2018 12:45

Hola. Completa y compartiendo. Muchas gracias a la brigada por los manguerazos (ostrata, DMMD, etc ...).

Avatar de Usuario
mortimerbrewster
Mensajes: 2062
Registrado: Mar 13 Jul, 2004 02:00
Ubicación: madrid (leganes)

Re: The Private Affairs of Bel Ami (Albert Lewin, 1947) HD 720p Dual SE

Mensaje por mortimerbrewster » Lun 04 Dic, 2023 19:33

bajando... que esta peli es imprescindible
Alta Definición es una necesidad, no un lujo.

Avatar de Usuario
Ogra
Mensajes: 56
Registrado: Vie 17 Nov, 2023 15:21

Re: The Private Affairs of Bel Ami (Albert Lewin, 1947) HD 720p Dual SE

Mensaje por Ogra » Lun 04 Dic, 2023 23:10

Gracias DMMD en cuanto llegue a casa a descargar es un lujo

Responder