Magnificent Obsession (Douglas Sirk, 1954) HD 1080p Dual SE

Publica y encuentra enlaces p2p de filmes hasta 1980 en esta sección.
Responder
Avatar de Usuario
kakihara
Mensajes: 520
Registrado: Sab 27 Mar, 2004 01:00

Magnificent Obsession (Douglas Sirk, 1954) HD 1080p Dual SE

Mensaje por kakihara » Vie 27 Ene, 2023 18:52


"Magnificent Obsession"

("Obsesión")

(Douglas Sirk, 1954)




Imagen



SINOPSIS:

Bob Merrick, un joven multimillonario, egoísta y engreído, sufre un accidente mientras conduce una lancha motora. En el hospital le aplican provisionalmente el pulmón artificial del doctor Phillips, pero desgraciadamente éste sufre un ataque repentino y muere. Su viuda Helen descubre entonces que está completamente arruinada, a pesar de que los honorarios que percibía su marido eran muy elevados. La razón es que él, sin que ella lo supiera, repartía el dinero, de manera anónima y altruista, entre los necesitados. A partir de ese momento, una serie de extrañas circunstancias mantendrán unidos a Helen y Bob, a pesar de tener caracteres muy distintos. (FILMAFFINITY)



PREMIOS:

1954: Nominada al Oscar: Mejor actriz (Jane Wyman)
"El maestro del melodrama Sirk ofrece lágrimas a saco en una de sus películas más conocida, brillantes y folletinescas (hay que decirlo todo). (...) La maravillosa e injustamente olvidada Jane Wyman fue candidata al oscar"
Guillermo Altares: Diario El País

Remake de un filme de 1935 dirigido por John M. Stahl, de mismo título original.
FilmAffinity


Rip de SARTRE de la edición Criterion que incluye los audiocomentarios de Thomas Doherty y al que se le ha montado el doblaje castellano de un dvdrip encontrado por la mula. Leves correcciones de sincronización y subtítulos extraídos en su día de Subdivx.

Los films del maestro del Melodrama Douglas Sirk son visualmente exquisitos, pero dada la naturaleza de la fotografía de sus producciones en color, las restauraciones no resultan tan espectaculares como las de otros clásicos, debido al abundante y grueso grano; no sucede lo mismo en sus escasos melodramas en b/n, con ejemplos como el máster de Eureka de "Ángeles sin Brillo" (1957), que luce espectacular. Disfruten de este uno de los melodramas destacados del maestro, en mi opinión tan sólo superado por "Sólo el Cielo lo Sabe", "Escrito sobre el Viento" e "Imitación a la Vida":



PELICULA (5,62 GB): ed2k linked2k://|file|Obsesi%C3%B3n.AKA.Magnificent%20Obsession.(Douglas.Sirk,1954)[Criterion.RM2K][1080p%20x265][ESP-ENG].By.SARTRE.&.Kakihara.mkv|6032806479|024EDBC2766835F13C9E047F2144A022|h=64LQEDGAXLX3ZIANHR5CDIPIJ3IXXBIX|/ ed2k link stats


DEL MISMO DIRECTOR:










CAPTURAS:

Imagen

Imagen

Imagen

Imagen

Imagen

Imagen

Imagen

Imagen

Imagen

Imagen

Imagen

Imagen


Spoiler: mostrar
Format : Matroska
Format version : Version 4
File size : 5.62 GiB
Duration : 1 h 47 min
Overall bit rate : 7 449 kb/s
Movie name : Magnificent Obsession (1954)
Encoded by : Sartre
ContentType : Movie
Description : The Great Love Story... by the author of "THE ROBE"
Released date : 1954-08-07
Encoded date : UTC 2023-01-27 15:16:02
Writing application : mkvmerge v67.0.0 ('Under Stars') 64-bit
Writing library : libebml v1.4.2 + libmatroska v1.6.4
Cover : Yes
Attachments : cover.jpg / kodi-metadata
ACTOR : Jane Wyman, Rock Hudson, Barbara Rush, Agnes Moorehead
ARTIST : Jane Wyman, Rock Hudson, Barbara Rush, Agnes Moorehead
DATE_RECORDED : 1954-08-07
DIRECTOR : Douglas Sirk
GENRE : Drama, Romance
LAW_RATING : NR
PRODUCER : Ross Hunter
PRODUCTION_STUDIO : Universal International Pictures
RATING : NR
SCREENPLAY_BY : Robert Blees
SUMMARY : The Great Love Story... by the author of "THE ROBE"
SYNOPSIS : When churlish, spoiled rich man Bob Merrick foolishly wrecks his speed boat, the rescue team resuscitates him with equipment that's therefore unavailable to aid a local hero, Dr. Wayne Phillips, who dies as a result. Phillips had helped many people, and when Merrick learns Phillips' secret, to give selflessly and in secret, he tries it in a ham-handed way.
WRITTEN_BY : Robert Blees

Video
ID : 1
Format : HEVC
Format/Info : High Efficiency Video Coding
Format profile : Main 10@L4@Main
Codec ID : V_MPEGH/ISO/HEVC
Duration : 1 h 47 min
Bit rate : 7 001 kb/s
Width : 1 920 pixels
Height : 960 pixels
Display aspect ratio : 2.000
Frame rate mode : Constant
Frame rate : 23.976 (24000/1001) FPS
Color space : YUV
Chroma subsampling : 4:2:0
Bit depth : 10 bits
Bits/(Pixel*Frame) : 0.158
Stream size : 5.28 GiB (94%)
Title : Magnificent.Obsession.1954.Criterion.1080p.BluRay.x265.HEVC.AAC-SARTRE
Writing library : x265M - 3.4+35-772bb4c84:[Windows][GCC 10.2.0][64 bit] 10bit
Encoding settings : cpuid=1111039 / frame-threads=2 / numa-pools=4 / wpp / no-pmode / no-pme / no-psnr / no-ssim / log-level=2 / csv / csv-log-level=0 / input-csp=1 / input-res=1920x960 / interlace=0 / total-frames=155351 / level-idc=0 / high-tier=1 / uhd-bd=0 / ref=4 / no-allow-non-conformance / no-repeat-headers / annexb / no-aud / no-hrd / info / hash=0 / no-temporal-layers / open-gop / min-keyint=23 / keyint=250 / gop-lookahead=0 / bframes=7 / b-adapt=2 / b-pyramid / bframe-bias=0 / rc-lookahead=35 / lookahead-slices=0 / scenecut=40 / hist-scenecut=0 / radl=0 / no-splice / no-intra-refresh / ctu=64 / min-cu-size=8 / no-rect / no-amp / max-tu-size=16 / tu-inter-depth=3 / tu-intra-depth=3 / limit-tu=0 / rdoq-level=2 / dynamic-rd=0.00 / no-ssim-rd / signhide / no-tskip / nr-intra=0 / nr-inter=0 / no-constrained-intra / no-strong-intra-smoothing / max-merge=3 / limit-refs=3 / limit-modes / me=3 / subme=5 / merange=57 / temporal-mvp / no-frame-dup / no-hme / weightp / weightb / no-analyze-src-pics / deblock=-3:-1 / no-sao / no-sao-non-deblock / rd=4 / selective-sao=0 / no-early-skip / rskip / no-fast-intra / no-tskip-fast / no-cu-lossless / b-intra / no-splitrd-skip / rdpenalty=0 / psy-rd=2.00 / psy-rdoq=1.00 / no-rd-refine / no-lossless / cbqpoffs=0 / crqpoffs=0 / rc=abr / bitrate=7000 / qcomp=0.60 / qpstep=4 / stats-write=0 / stats-read=2 / cplxblur=20.0 / qblur=0.5 / ipratio=1.40 / pbratio=1.20 / aq-mode=2 / aq-strength=1.20 / cutree / zone-count=0 / no-strict-cbr / qg-size=16 / no-rc-grain / qpmax=69 / qpmin=0 / no-const-vbv / sar=0 / overscan=0 / videoformat=5 / range=0 / colorprim=2 / transfer=2 / colormatrix=2 / chromaloc=0 / display-window=0 / cll=0,0 / min-luma=0 / max-luma=1023 / log2-max-poc-lsb=8 / vui-timing-info / vui-hrd-info / slices=1 / no-opt-qp-pps / no-opt-ref-list-length-pps / no-multi-pass-opt-rps / scenecut-bias=0.05 / hist-threshold=0.03 / no-opt-cu-delta-qp / no-aq-motion / no-hdr10 / no-hdr10-opt / no-dhdr10-opt / no-idr-recovery-sei / analysis-reuse-level=0 / analysis-save-reuse-level=0 / analysis-load-reuse-level=0 / scale-factor=0 / refine-intra=0 / refine-inter=0 / refine-mv=1 / refine-ctu-distortion=0 / no-limit-sao / ctu-info=0 / no-lowpass-dct / refine-analysis-type=0 / copy-pic=1 / max-ausize-factor=1.0 / no-dynamic-refine / no-single-sei / no-hevc-aq / no-svt / no-field / qp-adaptation-range=1.00 / scenecut-aware-qp=0conformance-window-offsets / right=0 / bottom=0 / decoder-max-rate=0 / no-vbv-live-multi-pass
Default : Yes
Forced : No

Audio #1
ID : 2
Format : AAC LC
Format/Info : Advanced Audio Codec Low Complexity
Codec ID : A_AAC-2
Duration : 1 h 47 min
Bit rate : 196 kb/s
Channel(s) : 1 channel
Channel layout : C
Sampling rate : 48.0 kHz
Frame rate : 46.875 FPS (1024 SPF)
Compression mode : Lossy
Delay relative to video : 20 ms
Stream size : 151 MiB (3%)
Title : VO. Inglés - AAC Mono 1.0
Language : English
Default : No
Forced : No

Audio #2
ID : 3
Format : AC-3
Format/Info : Audio Coding 3
Commercial name : Dolby Digital
Codec ID : A_AC3
Duration : 1 h 47 min
Bit rate mode : Constant
Bit rate : 160 kb/s
Channel(s) : 2 channels
Channel layout : L R
Sampling rate : 48.0 kHz
Frame rate : 31.250 FPS (1536 SPF)
Compression mode : Lossy
Delay relative to video : 13 s 0 ms
Stream size : 123 MiB (2%)
Title : Doblaje Castellano
Language : Spanish
Service kind : Complete Main
Default : Yes
Forced : Yes

Audio #3
ID : 4
Format : AAC LC SBR
Format/Info : Advanced Audio Codec Low Complexity with Spectral Band Replication
Commercial name : HE-AAC
Format settings : Explicit
Codec ID : A_AAC-2
Duration : 1 h 47 min
Bit rate : 72.0 kb/s
Channel(s) : 1 channel
Channel layout : C
Sampling rate : 48.0 kHz
Frame rate : 23.438 FPS (2048 SPF)
Compression mode : Lossy
Stream size : 54.9 MiB (1%)
Title : Audiocomentarios del académico Thomas Doherty
Language : English
Default : No
Forced : No

Text #1
ID : 5
Format : UTF-8
Codec ID : S_TEXT/UTF8
Codec ID/Info : UTF-8 Plain Text
Duration : 1 h 46 min
Bit rate : 64 b/s
Count of elements : 1659
Stream size : 50.6 KiB (0%)
Title : Sub Castellano
Language : Spanish
Default : No
Forced : No

Text #2
ID : 6
Format : UTF-8
Codec ID : S_TEXT/UTF8
Codec ID/Info : UTF-8 Plain Text
Duration : 1 h 45 min
Bit rate : 73 b/s
Count of elements : 1454
Stream size : 56.7 KiB (0%)
Title : Sub Inglés SRT
Language : English
Default : No
Forced : No

Text #3
ID : 7
Format : UTF-8
Codec ID : S_TEXT/UTF8
Codec ID/Info : UTF-8 Plain Text
Duration : 1 h 46 min
Bit rate : 75 b/s
Count of elements : 1522
Stream size : 58.9 KiB (0%)
Title : Sub Inglés SRT-SDH
Language : English
Default : No
Forced : No

Text #4
ID : 8
Format : PGS
Muxing mode : zlib
Codec ID : S_HDMV/PGS
Codec ID/Info : Picture based subtitle format used on BDs/HD-DVDs
Duration : 1 h 46 min
Bit rate : 48.6 kb/s
Count of elements : 3045
Stream size : 36.9 MiB (1%)
Title : Sub Inglés PGS-SDH
Language : English
Default : No
Forced : No

Menu
00:00:00.000 : en:Chapter 01
00:04:48.746 : en:Chapter 02
00:09:44.584 : en:Chapter 03
00:13:28.349 : en:Chapter 04
00:19:17.072 : en:Chapter 05
00:23:20.190 : en:Chapter 06
00:26:03.895 : en:Chapter 07
00:31:54.662 : en:Chapter 08
00:37:22.823 : en:Chapter 09
00:40:42.314 : en:Chapter 10
00:42:36.053 : en:Chapter 11
00:46:19.276 : en:Chapter 12
00:51:36.259 : en:Chapter 13
00:56:22.629 : en:Chapter 14
01:00:17.614 : en:Chapter 15
01:05:57.244 : en:Chapter 16
01:09:06.058 : en:Chapter 17
01:16:49.313 : en:Chapter 18
01:22:11.885 : en:Chapter 19
01:28:54.120 : en:Chapter 20
01:32:13.528 : en:Chapter 21
01:35:18.212 : en:Chapter 22
01:38:34.366 : en:Chapter 23
01:43:05.137 : en:Chapter 24
Última edición por kakihara el Mar 07 Feb, 2023 20:12, editado 6 veces en total.
“No hay amor en tu violencia”. (Kakihara, “Ichi the Killer”, 2001).

Avatar de Usuario
ostrata
Mensajes: 2634
Registrado: Mié 24 Mar, 2010 17:29

Re: Magnificent Obsession (Douglas Sirk, 1954) HD 1080p Dual SE

Mensaje por ostrata » Vie 27 Ene, 2023 20:19

Gracias. :)

Saludos.

joramor
Mensajes: 1941
Registrado: Vie 05 Nov, 2010 19:55

Re: Magnificent Obsession (Douglas Sirk, 1954) HD 1080p Dual SE

Mensaje por joramor » Vie 27 Ene, 2023 22:28

Muchas gracias kakihara. Salu2.

msm1976
Mensajes: 82
Registrado: Sab 18 Jun, 2022 21:06

Re: Magnificent Obsession (Douglas Sirk, 1954) HD 1080p Dual SE

Mensaje por msm1976 » Sab 28 Ene, 2023 00:11

magnifico !!!! gracias

Avatar de Usuario
Spanish Jhonny
Mensajes: 3530
Registrado: Mar 18 Sep, 2012 16:01

Re: Magnificent Obsession (Douglas Sirk, 1954) HD 1080p Dual SE

Mensaje por Spanish Jhonny » Sab 28 Ene, 2023 11:26

Me apunto.
Muchas gracias kakihara :plas: :plas: :plas:

Avatar de Usuario
Brateh
Amante del Cine
Mensajes: 441
Registrado: Sab 31 Jul, 2010 05:37
Ubicación: Argentina

Re: Magnificent Obsession (Douglas Sirk, 1954) HD 1080p Dual SE

Mensaje por Brateh » Jue 02 Feb, 2023 14:27

Muchas gracias kakihara, pinchada y a renovarla!
:plas: :plas: :plas:
Alta Definición es una necesidad... Bienvenida sea!!

Perelló
Mensajes: 85
Registrado: Vie 10 Oct, 2008 23:44

Re: Magnificent Obsession (Douglas Sirk, 1954) HD 1080p Dual SE

Mensaje por Perelló » Jue 02 Feb, 2023 16:40

Gracias kakihara, uno de los muchos films que Hudson interpretó a las órdenes de Sirk. Un saludo.

Avatar de Usuario
marioguerola
Elegancia y sencillez
Mensajes: 281
Registrado: Lun 18 Abr, 2022 21:42

Re: Magnificent Obsession (Douglas Sirk, 1954) HD 1080p Dual SE

Mensaje por marioguerola » Jue 02 Feb, 2023 18:43

Muchas gracias grande kakihara, pincho para mejorar la copia de esta gran película. :plas: :plas:
«Es mucho mejor dar que recibir»
(Madre Teresa de Calcuta y Mike Tyson)

bluemimosin
Mensajes: 35
Registrado: Dom 03 Ene, 2016 13:11

Re: Magnificent Obsession (Douglas Sirk, 1954) HD 1080p Dual SE

Mensaje por bluemimosin » Jue 02 Feb, 2023 22:27

Gran película. ¡¡Muchísimas gracias!!

Responder