Die Halbstarken (Georg Tressler, 1956) HD 1080p VOSE

Publica y encuentra enlaces p2p de filmes hasta 1980 en esta sección.
Responder
Avatar de Usuario
Teeninlove
Mensajes: 1479
Registrado: Dom 25 Jul, 2004 02:00

Die Halbstarken (Georg Tressler, 1956) HD 1080p VOSE

Mensaje por Teeninlove » Sab 26 Nov, 2022 18:05

Die Halbstarken / Los jóvenes fuertes / Teenage Wolfpack
(Georg Tressler, 1956)


IMDb

filmaffinity

Imagen





Sinopsis:
Berlín, años 50. Freddy, de 19 años, se ha largado de casa, por no poder soportar más la tiranía de su padre,
un pequeño burgués. Freddy se ha convertido entretanto en el cabecilla de una pequeña banda juvenil,
que va por la vida a base de estafas. Un día, el hermano menor de Freddy,
quien precisamente está preparando su "gran golpe", le ruega que ayude financieramente a su padre,
fuertemente endeudado. Freddy acepta por amor a su madre.
Imagen





Capturas:

Imagen
Imagen
Imagen
Imagen
Imagen
Imagen
Imagen
Imagen
Imagen




Datos Técnicos:
Spoiler: mostrar

General
Unique ID : 243490015046946714263830929405949647786 (0xB72E789AEA574F07BF44E970AF0A1BAA)
Complete name : C:\Die.Halbstarken.1956.BDREMUX.GER.VOSE.mkv
Format : Matroska
Format version : Version 4
File size : 14.4 GiB
Duration : 1 h 34 min
Overall bit rate mode : Variable
Overall bit rate : 21.7 Mb/s
Movie name : Die.Halbstarken.1956.GERMAN-OLDHAM_sub
Encoded date : UTC 2022-11-26 14:55:21
Writing application : mkvmerge v72.0.0 ('Minuano (Six-eight)') 64-bit
Writing library : libebml v1.4.4 + libmatroska v1.7.1

Video
ID : 1
ID in the original source medium : 4113 (0x1011)
Format : AVC
Format/Info : Advanced Video Codec
Format profile : High@L4.1
Format settings : CABAC / 3 Ref Frames
Format settings, CABAC : Yes
Format settings, Reference frames : 3 frames
Codec ID : V_MPEG4/ISO/AVC
Duration : 1 h 34 min
Bit rate mode : Variable
Bit rate : 20.0 Mb/s
Maximum bit rate : 30.0 Mb/s
Width : 1 920 pixels
Height : 1 080 pixels
Display aspect ratio : 16:9
Frame rate mode : Constant
Frame rate : 24.000 FPS
Standard : NTSC
Color space : YUV
Chroma subsampling : 4:2:0
Bit depth : 8 bits
Scan type : Progressive
Bits/(Pixel*Frame) : 0.402
Stream size : 13.2 GiB (92%)
Writing library : x264pro - Adobe CS Exporter Plug-in
Encoding settings : cabac=1 / ref=4 / deblock=1:-1:-1 / analyse=0x3:0x133 / me=umh / subme=10 / psy=1 / psy_rd=1.00:0.15 / mixed_ref=1 / me_range=24 / chroma_me=1 / trellis=2 / 8x8dct=1 / cqm=0 / deadzone=21,11 / fast_pskip=1 / chroma_qp_offset=-3 / threads=12 / lookahead_threads=2 / sliced_threads=0 / slices=4 / nr=0 / decimate=1 / interlaced=0 / bluray_compat=1 / constrained_intra=0 / bframes=3 / b_pyramid=1 / b_adapt=2 / b_bias=0 / direct=3 / weightb=1 / open_gop=0 / weightp=1 / keyint=24 / keyint_min=1 / scenecut=40 / intra_refresh=0 / rc_lookahead=24 / rc=abr / mbtree=1 / bitrate=20000 / ratetol=1.0 / qcomp=0.60 / qpmin=0 / qpmax=69 / qpstep=4 / vbv_maxrate=30000 / vbv_bufsize=30000 / nal_hrd=vbr / ip_ratio=1.40 / aq=1:1.00
Language : English
Default : No
Forced : No
Color range : Limited
Color primaries : BT.709
Transfer characteristics : BT.709
Matrix coefficients : BT.709
Original source medium : Blu-ray

Audio
ID : 2
ID in the original source medium : 4352 (0x1100)
Format : DTS XLL
Format/Info : Digital Theater Systems
Commercial name : DTS-HD Master Audio
Codec ID : A_DTS
Duration : 1 h 34 min
Bit rate mode : Variable
Bit rate : 1 661 kb/s
Channel(s) : 2 channels
Channel layout : L R
Sampling rate : 48.0 kHz
Frame rate : 93.750 FPS (512 SPF)
Bit depth : 24 bits
Compression mode : Lossless
Stream size : 1.10 GiB (8%)
Title : Stereo
Language : German
Default : Yes
Forced : No
Original source medium : Blu-ray

Text #1
ID : 3
Format : UTF-8
Codec ID : S_TEXT/UTF8
Codec ID/Info : UTF-8 Plain Text
Duration : 1 h 32 min
Bit rate : 66 b/s
Count of elements : 1074
Stream size : 44.8 KiB (0%)
Title : spa
Language : Spanish
Default : Yes
Forced : No

Text #2
ID : 4
ID in the original source medium : 4608 (0x1200)
Format : PGS
Muxing mode : zlib
Codec ID : S_HDMV/PGS
Codec ID/Info : Picture based subtitle format used on BDs/HD-DVDs
Duration : 1 h 31 min
Bit rate : 45.4 kb/s
Count of elements : 2470
Stream size : 29.7 MiB (0%)
Language : English
Default : No
Forced : No
Original source medium : Blu-ray

Text #3
ID : 5
ID in the original source medium : 4609 (0x1201)
Format : PGS
Muxing mode : zlib
Codec ID : S_HDMV/PGS
Codec ID/Info : Picture based subtitle format used on BDs/HD-DVDs
Duration : 1 h 31 min
Bit rate : 37.5 kb/s
Count of elements : 1928
Stream size : 24.6 MiB (0%)
Language : German
Default : No
Forced : No
Original source medium : Blu-ray

Menu
00:00:00.000 : en:Chapter 01
00:01:52.041 : en:Chapter 02
00:08:06.916 : en:Chapter 03
00:15:15.583 : en:Chapter 04
00:22:05.000 : en:Chapter 05
00:29:49.958 : en:Chapter 06
00:40:03.875 : en:Chapter 07
00:48:51.000 : en:Chapter 08
00:59:49.083 : en:Chapter 09
01:07:51.291 : en:Chapter 10
01:15:05.291 : en:Chapter 11
01:23:01.041 : en:Chapter 12
01:29:09.333 : en:Chapter 13
01:34:37.916 : en:Chapter 14








Enlaces:

ed2k linked2k://|file|Die.Halbstarken.1956.BDREMUX.GER.VOSE.mkv|15430674325|D9BEE8AEE4CA758D93B3B0971E349CD4|h=OIXE5N2TNXNNPUSXVDSUFMRQLO7KNY4L|/ ed2k link stats




Notas:
BDRemux del BD alemán, obtenido de tracker privado.

He sincronizado los subs españoles de toerless (muchas gracias).


Aparte el BD original lleva subs ingleses y alemanes en formato SUP.

Avatar de Usuario
Forrest Gump
Mensajes: 1706
Registrado: Vie 18 May, 2007 18:06
Ubicación: Zihuatanejo

Re: Die Halbstarken (Georg Tressler, 1956) HD 1080p VOSE

Mensaje por Forrest Gump » Dom 27 Nov, 2022 07:18

Vamos con ella. Muchas gracias, Teen. :plas:
Made it, Ma, top of the world!

Avatar de Usuario
Dardo
Arrow Thrower Clown
Mensajes: 17691
Registrado: Dom 19 Oct, 2003 02:00
Ubicación: Entre Encinas y Dolomías

Re: Die Halbstarken (Georg Tressler, 1956) HD 1080p VOSE

Mensaje por Dardo » Dom 27 Nov, 2022 17:05

Pinta muy bien, pincho y así echamos una manos en la distribución.

Muchas gracias Teen

Avatar de Usuario
Spanish Jhonny
Mensajes: 3483
Registrado: Mar 18 Sep, 2012 16:01

Re: Die Halbstarken (Georg Tressler, 1956) HD 1080p VOSE

Mensaje por Spanish Jhonny » Dom 27 Nov, 2022 23:29

También me apunto :plas: :plas:
Muchas gracias ;)

joramor
Mensajes: 1915
Registrado: Vie 05 Nov, 2010 19:55

Re: Die Halbstarken (Georg Tressler, 1956) HD 1080p VOSE

Mensaje por joramor » Mar 29 Nov, 2022 13:35

Muchas gracias Teen. Salu2.

Responder