Sirocco (Curtis Bernhardt, 1951) HD 720p Dual SE

Publica y encuentra enlaces p2p de filmes hasta 1980 en esta sección.
Responder
Avatar de Usuario
DMMD
Mensajes: 1910
Registrado: Lun 27 Feb, 2012 14:16

Sirocco (Curtis Bernhardt, 1951) HD 720p Dual SE

Mensaje por DMMD » Lun 08 Ago, 2022 13:19

Imagen


Imagen

Siroco


Título original Sirocco
Año 1951
Duración 98 min
País Imagen
Dirección Curtis Bernhardt
Guion A.I. Bezzerides, Hans Jacoby. Novela: Joseph Kessel

Música George Antheil
Fotografía Burnett Guffey (B&W)
Reparto
Humphrey Bogart, Märta Torén, Lee J. Cobb, Everett Sloane, Gerald Mohr, Zero Mostel, Nick Dennis, Onslow Stevens, Ludwig Donath, David Bond, Vincent Renno

Productora Santana Pictures Corporation
Género Cine negro. Drama. Thriller | Años 20. Crimen. Ejército. Colonialismo. Cine independiente USA
Sinopsis
Damasco, 1925. Harry Smith (Bogart), un despiadado contrabandista de armas, necesita un salvoconducto para salir de Damasco y no tiene más remedio que recurrir a su máximo rival, el coronel francés Feroud (Lee J. Cobb), que lo chantajea exigiéndole a cambio una importante información militar... (FILMAFFINITY)


Imagen


Vídeo:

- Encode a partir de la edición del Bluray de Indicator



Imagen Imagen Imagen Imagen Imagen Imagen Imagen Imagen Imagen Imagen Imagen Imagen

Código: Seleccionar todo

General
Unique ID                                : 284924289596457996959164898020854229265 (0xD65A6C102B126058451E5C01544A6911)
Complete name                            : D:\Incoming\1951-Sirocco.BRx264.720p.AAC.AC3.(DMMD).mkv
Format                                   : Matroska
Format version                           : Version 4
File size                                : 6.43 GiB
Duration                                 : 1 h 38 min
Overall bit rate                         : 9 367 kb/s
Movie name                               : 1951-Sirocco.BRx264.720p.AAC.AC3.(DMMD)
Encoded date                             : UTC 2022-08-08 09:07:55
Writing application                      : mkvmerge v69.0.0 ('Day And Age') 64-bit
Writing library                          : libebml v1.4.2 + libmatroska v1.6.4
Attachments                              : 1 / 2

Video
ID                                       : 1
Format                                   : AVC
Format/Info                              : Advanced Video Codec
Format profile                           : High@L4.1
Format settings                          : CABAC / 11 Ref Frames
Format settings, CABAC                   : Yes
Format settings, Reference frames        : 11 frames
Codec ID                                 : V_MPEG4/ISO/AVC
Duration                                 : 1 h 38 min
Bit rate                                 : 9 023 kb/s
Width                                    : 962 pixels
Height                                   : 720 pixels
Display aspect ratio                     : 4:3
Frame rate mode                          : Constant
Frame rate                               : 23.976 (24000/1001) FPS
Color space                              : YUV
Chroma subsampling                       : 4:2:0
Bit depth                                : 8 bits
Scan type                                : Progressive
Bits/(Pixel*Frame)                       : 0.543
Stream size                              : 6.20 GiB (96%)
Writing library                          : x264 core 152 r2851kMod ba24899
Encoding settings                        : cabac=1 / ref=11 / deblock=1:-3:-3 / analyse=0x3:0x133 / me=umh / subme=11 / psy=1 / fade_compensate=0.00 / psy_rd=0.90:0.00 / mixed_ref=1 / me_range=24 / chroma_me=1 / trellis=2 / 8x8dct=1 / cqm=0 / deadzone=21,11 / fast_pskip=0 / chroma_qp_offset=-2 / threads=6 / lookahead_threads=1 / sliced_threads=0 / nr=0 / decimate=0 / interlaced=0 / bluray_compat=0 / constrained_intra=0 / bframes=8 / b_pyramid=2 / b_adapt=2 / b_bias=0 / direct=3 / weightb=1 / open_gop=0 / weightp=2 / keyint=250 / keyint_min=23 / scenecut=40 / intra_refresh=0 / rc_lookahead=60 / rc=crf / mbtree=1 / crf=19.4000 / qcomp=0.58 / qpmin=0 / qpmax=69 / qpstep=4 / ip_ratio=1.40 / aq=2:0.48
Language                                 : English
Default                                  : Yes
Forced                                   : No

Audio #1
ID                                       : 2
Format                                   : AAC LC
Format/Info                              : Advanced Audio Codec Low Complexity
Codec ID                                 : A_AAC-2
Duration                                 : 1 h 38 min
Bit rate                                 : 132 kb/s
Channel(s)                               : 1 channel
Channel layout                           : C
Sampling rate                            : 48.0 kHz
Frame rate                               : 46.875 FPS (1024 SPF)
Compression mode                         : Lossy
Delay relative to video                  : 9 ms
Stream size                              : 92.8 MiB (1%)
Language                                 : English
Default                                  : Yes
Forced                                   : No

Audio #2
ID                                       : 3
Format                                   : AC-3
Format/Info                              : Audio Coding 3
Commercial name                          : Dolby Digital
Codec ID                                 : A_AC3
Duration                                 : 1 h 38 min
Bit rate mode                            : Constant
Bit rate                                 : 192 kb/s
Channel(s)                               : 2 channels
Channel layout                           : L R
Sampling rate                            : 48.0 kHz
Frame rate                               : 31.250 FPS (1536 SPF)
Compression mode                         : Lossy
Stream size                              : 135 MiB (2%)
Language                                 : Spanish
Service kind                             : Complete Main
Default                                  : No
Forced                                   : No

Text #1
ID                                       : 4
Format                                   : UTF-8
Codec ID                                 : S_TEXT/UTF8
Codec ID/Info                            : UTF-8 Plain Text
Duration                                 : 1 h 37 min
Bit rate                                 : 55 b/s
Count of elements                        : 1061
Stream size                              : 40.0 KiB (0%)
Language                                 : Spanish
Default                                  : No
Forced                                   : No

Text #2
ID                                       : 5
Format                                   : UTF-8
Codec ID                                 : S_TEXT/UTF8
Codec ID/Info                            : UTF-8 Plain Text
Duration                                 : 1 h 36 min
Bit rate                                 : 57 b/s
Count of elements                        : 1423
Stream size                              : 40.4 KiB (0%)
Language                                 : English
Default                                  : No
Forced                                   : No

Text #3
ID                                       : 6
Format                                   : UTF-8
Codec ID                                 : S_TEXT/UTF8
Codec ID/Info                            : UTF-8 Plain Text
Duration                                 : 1 h 36 min
Bit rate                                 : 61 b/s
Count of elements                        : 1603
Stream size                              : 43.6 KiB (0%)
Title                                    : SDH
Language                                 : English
Default                                  : No
Forced                                   : No

Text #4
ID                                       : 7
Format                                   : PGS
Muxing mode                              : zlib
Codec ID                                 : S_HDMV/PGS
Codec ID/Info                            : Picture based subtitle format used on BDs/HD-DVDs
Duration                                 : 1 h 38 min
Bit rate                                 : 41.6 kb/s
Count of elements                        : 3232
Stream size                              : 29.2 MiB (0%)
Language                                 : English
Default                                  : No
Forced                                   : No

Menu
00:00:00.000                             : en:00:00:00:000
00:09:27.150                             : en:00:09:27:150
00:16:22.732                             : en:00:16:22:732
00:23:33.912                             : en:00:23:33:912
00:33:39.851                             : en:00:33:39:851
00:40:35.516                             : en:00:40:35:516
00:48:25.486                             : en:00:48:25:486
00:55:39.836                             : en:00:55:39:836
01:04:33.578                             : en:01:04:33:578
01:15:59.889                             : en:01:15:59:889
01:22:20.269                             : en:01:22:20:269
01:28:38.230                             : en:01:28:38:230


Imagen


BDRip 720p Vs WEB-DL Vs Dvd Pal

Imagen
Imagen
Imagen



Imagen



Audio y subtitulos:

- Para la V.O. audio AAC pasado del Blu-ray. ( LPCM Audio / 1.0 / 48 kHz / 1152 kbps / 24-bit), subs extraídos del Bluray.

- Audio y sub para el doblaje del Dvd (Columbia)



Imagen


CAPTURAS

Imagen
Imagen
Imagen
Imagen
Imagen
Imagen
Imagen
Imagen



Imagen



Enlaces de descarga

Imagen

ed2k link1951-Sirocco.BRx264.720p.AAC.AC3.(DMMD).mkv ed2k link stats


Imagen

El pequeño Stephen Bogart visitando a su padre durante el rodaje.

Avatar de Usuario
Satori
Mensajes: 82
Registrado: Jue 31 Mar, 2022 16:16

Re: Sirocco (Curtis Bernhardt, 1951) HD 720p Dual SE

Mensaje por Satori » Lun 08 Ago, 2022 13:48

Muchas Gracias DMMD !!

Siempre apetece ver a Humphrey en HD

Avatar de Usuario
Dardo
Arrow Thrower Clown
Mensajes: 17505
Registrado: Dom 19 Oct, 2003 02:00
Ubicación: Entre Encinas y Dolomías

Re: Sirocco (Curtis Bernhardt, 1951) HD 720p Dual SE

Mensaje por Dardo » Lun 08 Ago, 2022 14:15

Vídeo de los facilones DMMD :mrgreen:

Me encantan estas películas, así que click!!!

Mil gracias

Avatar de Usuario
Spanish Jhonny
Mensajes: 3422
Registrado: Mar 18 Sep, 2012 16:01

Re: Sirocco (Curtis Bernhardt, 1951) HD 720p Dual SE

Mensaje por Spanish Jhonny » Lun 08 Ago, 2022 15:11

Buen siroco te ha dao, DMMD :sonrisa: :plas: :plas: :plas:
Muchas gracias.
Saludos.

Avatar de Usuario
marioguerola
Elegancia y sencillez
Mensajes: 92
Registrado: Lun 18 Abr, 2022 21:42

Re: Sirocco (Curtis Bernhardt, 1951) HD 720p Dual SE

Mensaje por marioguerola » Lun 08 Ago, 2022 15:16

:D Muchas gracias DMMD, una gran peli.
«Es mucho mejor dar que recibir»
(Madre Teresa de Calcuta y Mike Tyson)

Avatar de Usuario
DMMD
Mensajes: 1910
Registrado: Lun 27 Feb, 2012 14:16

Re: Sirocco (Curtis Bernhardt, 1951) HD 720p Dual SE

Mensaje por DMMD » Lun 08 Ago, 2022 15:43

Dardo escribió:
Lun 08 Ago, 2022 14:15
Vídeo de los facilones DMMD :mrgreen:
Si de los que salen a la primera :mrgreen: , el que sale facilón :upset:

Avatar de Usuario
ostrata
Mensajes: 2554
Registrado: Mié 24 Mar, 2010 17:29

Re: Sirocco (Curtis Bernhardt, 1951) HD 720p Dual SE

Mensaje por ostrata » Lun 08 Ago, 2022 16:28

Gracias. :)

Saludos.

Avatar de Usuario
paizoco
Mensajes: 2899
Registrado: Vie 21 Nov, 2003 01:00
Ubicación: Far West

Re: Sirocco (Curtis Bernhardt, 1951) HD 720p Dual SE

Mensaje por paizoco » Mar 09 Ago, 2022 07:35

Me apunto, muchas gracias.

dresen75
Mensajes: 26
Registrado: Jue 27 Dic, 2018 12:53

Re: Sirocco (Curtis Bernhardt, 1951) HD 720p Dual SE

Mensaje por dresen75 » Mar 09 Ago, 2022 11:00

Muchas gracias!!

Avatar de Usuario
mith34
Mensajes: 327
Registrado: Dom 10 Ene, 2010 13:10
Ubicación: Áqaba

Re: Sirocco (Curtis Bernhardt, 1951) HD 720p Dual SE

Mensaje por mith34 » Mar 09 Ago, 2022 11:44

Muchas gracias, DMMD!

Saludos.

Avatar de Usuario
janca
Mensajes: 2255
Registrado: Dom 20 Dic, 2009 09:31

Re: Sirocco (Curtis Bernhardt, 1951) HD 720p Dual SE

Mensaje por janca » Mar 09 Ago, 2022 14:54

Muchas gracias DMMD

Avatar de Usuario
eulsus
Mensajes: 2131
Registrado: Vie 18 May, 2007 10:41
Ubicación: La Palma

Re: Sirocco (Curtis Bernhardt, 1951) HD 720p Dual SE

Mensaje por eulsus » Mar 09 Ago, 2022 23:24

Que se mantenga la dirección del viento. :D
Imagen
Antonio García-Trevijano Forte (1927-2018)
"Para que yo sea libre, todos tienen que ser libres"

Abstención activa hasta que haya Libertad Colectiva

Avatar de Usuario
bull
Mensajes: 327
Registrado: Lun 23 Sep, 2013 14:22

Re: Sirocco (Curtis Bernhardt, 1951) HD 720p Dual SE

Mensaje por bull » Mié 10 Ago, 2022 13:12

Muchas gracias DMMD,
Saludos.

Avatar de Usuario
duegno
Mensajes: 327
Registrado: Dom 28 Ago, 2011 13:28

Re: Sirocco (Curtis Bernhardt, 1951) HD 720p Dual SE

Mensaje por duegno » Mié 10 Ago, 2022 18:28

Muchas gracias. Un poco de aire no nos viene mal... pero mejor fresquito.

msm1976
Mensajes: 18
Registrado: Sab 18 Jun, 2022 21:06

Re: Sirocco (Curtis Bernhardt, 1951) HD 720p Dual SE

Mensaje por msm1976 » Vie 12 Ago, 2022 15:47

Mi prefe Bogart !! Mejora en mucho mi version que tenia. Muchas gracias

Avatar de Usuario
Brenda21
Mensajes: 10
Registrado: Jue 21 Jul, 2022 00:20

Re: Sirocco (Curtis Bernhardt, 1951) HD 720p Dual SE

Mensaje por Brenda21 » Jue 18 Ago, 2022 16:18

Muchas gracias DMMD!

Avatar de Usuario
WalterBurns
Mensajes: 1226
Registrado: Dom 11 Oct, 2015 15:08

Re: Sirocco (Curtis Bernhardt, 1951) HD 720p Dual SE

Mensaje por WalterBurns » Dom 21 Ago, 2022 13:57

Gracias por compartirla.

Responder