Capitán Apache (Alexander Singer, 1971) BDRip Dual

Publica y encuentra enlaces p2p de filmes hasta 1980 en esta sección.
Responder
Avatar de Usuario
DCINE
Mensajes: 658
Registrado: Mar 20 Dic, 2016 15:02

Capitán Apache (Alexander Singer, 1971) BDRip Dual

Mensaje por DCINE » Vie 02 Ago, 2019 14:12

Capitán Apache
(Captain Apache)

1971

Imagen

DIRECTOR: Alexander Singer
PRODUCTORA: Coproducción Reino Unido-España; Scotia International Films
GUIÓN: Philip Yordan, Milton Sperling, S.E. Whitman
MÚSICA: Dolores Claman
FOTOGRAFÍA: John Cabrera

Imagen
Imagen


ARGUMENTO Capitán Apache es el nombre de un oficial indio del ejército de los EE.UU. Cuando un comisario federal, amigo de los indios, es asesinado, Capitán Apache se ocupa de investigar el caso. Las últimas palabras pronunciadas por el federal antes de morir, "April morning", son la primera pista que puede llevarlo a descubrir a los asesinos. (FILMAFFINITY) IMDB: https://www.imdb.com/title/tt0066886/





Reparto:
Lee Van Cleef, Carroll Baker, Stuart Whitman, Percy Herbert, Elisa Montés, Tony Vogel, Charles Stalmaker, Charly Bravo, Faith Clift, Dee Pollock, Dan van Husen, Hugh McDermott, George Margo, José Bódalo, Elsa Zabala, Jess Hahn



Datos Técnicos:

Video: Ripeo de CiNETRONiC encontrado en e-mule, del Blu-Ray editado por Kino Lorber

Audio: Ya codificado en AC3

Doblaje: Se incluye por primera vez el del estreno en 1975, hay otros dos
, uno para la edición en vídeo de Libra de 1986 y otro (creo) para el DVD del 2000' (aunque hay algún DVD con el doblaje de 1986). Rescatado del VHS editado por Torrevision/Óscar Vídeo (Edición legal) de 1988. La sincro del VHS era una joya (frases repetidas que no coincidían con la imagen, silabas repetidas creando un efecto tartajo, música repetida en algún fragmento que carecía de doblaje...), no me extraña que la redoblasen por estar el doblaje en tales condiciones, ojalá aparezca algún día completo. La sincro fue muy complicada (tanto que me ha producido dolor de cabeza), debido a que en el VHS se uso una copia del doblaje muy machacada (ceo que de un 16mm) sincronizada a un máster en ingles también machacado, he hecho lo que he podido, para los minutos perdidos, he usado el doblaje de 1986 de un ripeo de Exploradores y unas frases del 3º doblaje (de un pase de La 2)

Código: Seleccionar todo

 General:

Complete name                    : 1971 Capitán Apache (Captain Apache) (Alexander Singer, 1971) BDRip Dual (Spa (Doblaje Cines 1975)-Eng) by CiNETRONiC-DCINE.mkv
Format                           : Matroska
Format version                   : Version 4 / Version 2
File size                        : 1.05 GiB
Duration                         : 1h 34mn
Overall bit rate                 : 1 597 Kbps
Movie name                       : 1971 Capitán Apache/Captain Apache (Alexander Singer, 1971) BDRip Dual (Spa (Doblaje Cines 1975)-Eng) by CiNETRONiC-DCINE.mkv
Encoded date                     : UTC 2019-05-10 16:24:23
Writing application              : mkvmerge v7.1.0 ('Good Love') 32bit built on Jul 27 2014 12:59:18
Writing library                  : libebml v1.3.0 + libmatroska v1.4.1
_STATISTICS_WRITING_APP          : mkvmerge v7.1.0 ('Good Love') 32bit built on Jul 27 2014 12:59:18
_STATISTICS_WRITING_DATE_UTC     : 2019-05-10 16:24:23
_STATISTICS_TAGS                 : BPS DURATION NUMBER_OF_FRAMES NUMBER_OF_BYTES
DURATION                         : 01:34:07.032000000
NUMBER_OF_FRAMES                 : 235293
NUMBER_OF_BYTES                  : 90352512

Video
ID                               : 1
Format                           : AVC
Format/Info                      : Advanced Video Codec
Format profile                   : High@L3.0
Format settings, CABAC           : Yes
Format settings, ReFrames        : 4 frames
Codec ID                         : V_MPEG4/ISO/AVC
Duration                         : 1h 34mn
Bit rate                         : 1 275 Kbps
Width                            : 720 pixels
Height                           : 294 pixels
Display aspect ratio             : 2.40:1
Frame rate                       : 23.976 fps
Color space                      : YUV
Chroma subsampling               : 4:2:0
Bit depth                        : 8 bits
Scan type                        : Progressive
Bits/(Pixel*Frame)               : 0.251
Stream size                      : 838 MiB (78%)
Writing library                  : x264 core 148 r2744 b97ae06
Encoding settings                : cabac=1 / ref=3 / deblock=1:0:0 / analyse=0x3:0x113 / me=hex / subme=7 / psy=1 / psy_rd=1.00:0.00 / mixed_ref=1 / me_range=16 / chroma_me=1 / trellis=1 / 8x8dct=1 / cqm=0 / deadzone=21,11 / fast_pskip=1 / chroma_qp_offset=-2 / threads=6 / lookahead_threads=1 / sliced_threads=0 / nr=0 / decimate=1 / interlaced=0 / bluray_compat=0 / constrained_intra=0 / bframes=3 / b_pyramid=2 / b_adapt=1 / b_bias=0 / direct=1 / weightb=1 / open_gop=0 / weightp=2 / keyint=240 / keyint_min=23 / scenecut=40 / intra_refresh=0 / rc_lookahead=40 / rc=2pass / mbtree=1 / bitrate=1275 / ratetol=1.0 / qcomp=0.60 / qpmin=0 / qpmax=69 / qpstep=4 / cplxblur=20.0 / qblur=0.5 / ip_ratio=1.40 / aq=1:1.00
Default                          : Yes
Forced                           : No

Audio #1
ID                               : 2
Format                           : MPEG Audio
Format version                   : Version 1
Format profile                   : Layer 2
Codec ID                         : A_MPEG/L2
Codec ID/Hint                    : MP2
Duration                         : 1h 34mn
Bit rate mode                    : Constant
Bit rate                         : 128 Kbps
Channel(s)                       : 2 channels
Sampling rate                    : 48.0 KHz
Compression mode                 : Lossy
Stream size                      : 86.2 MiB (8%)
Title                            : Doblaje Cines 1975
Language                         : Spanish
Default                          : Yes
Forced                           : Yes

Audio #2
ID                               : 3
Format                           : AC-3
Format/Info                      : Audio Coding 3
Mode extension                   : CM (complete main)
Codec ID                         : A_AC3
Duration                         : 1h 34mn
Bit rate mode                    : Constant
Bit rate                         : 192 Kbps
Channel(s)                       : 2 channels
Channel positions                : Front: L R
Sampling rate                    : 48.0 KHz
Bit depth                        : 16 bits
Compression mode                 : Lossy
Stream size                      : 129 MiB (12%)
Title                            : eng
Language                         : English
Default                          : No
Forced                           : No

Menu
00:00:00.000                     : :Chapter 1
00:05:00.000                     : :Chapter 2
00:10:00.000                     : :Chapter 3
00:15:00.000                     : :Chapter 4
00:20:00.000                     : :Chapter 5
00:25:00.000                     : :Chapter 6
00:30:00.000                     : :Chapter 7
00:35:00.000                     : :Chapter 8
00:40:00.000                     : :Chapter 9
00:45:00.000                     : :Chapter 10
00:50:00.000                     : :Chapter 11
00:55:00.000                     : :Chapter 12
01:00:00.000                     : :Chapter 13
01:05:00.000                     : :Chapter 14
01:10:00.000                     : :Chapter 15
01:15:00.000                     : :Chapter 16
01:20:00.000                     : :Chapter 17
01:25:00.000                     : :Chapter 18
01:30:00.000                     : :Chapter 19




Capturas:

Imagen Imagen
Imagen Imagen
Imagen Imagen
Imagen Imagen
Imagen Imagen



Enlace:


ed2k link1971 Capitán Apache (Captain Apache) (Alexander Singer, 1971) BDRip Dual (Spa (Doblaje Cines 1975)-Eng) by CiNETRONiC-DCINE.mkv ed2k link stats


DD: https://drive.google.com/open?id=1KHvxp ... cLKu06lRMh

larigan
Mensajes: 623
Registrado: Dom 15 Nov, 2015 17:00

Re: Capitán Apache (Alexander Singer, 1971) BDRip Dual

Mensaje por larigan » Vie 02 Ago, 2019 20:43

gracias

Avatar de Usuario
carrido
Mensajes: 634
Registrado: Mié 19 Feb, 2014 15:58
Ubicación: Freedonia

Re: Capitán Apache (Alexander Singer, 1971) BDRip Dual

Mensaje por carrido » Mié 17 Ago, 2022 20:10

Muchísimas gracias DCINE; por este Spaghetti Western ya con co-producciones varias. Es genial recuperar estas pequeñas joyas.


:plas: :plas: :plas: :plas: :plas:
Carrido

Responder