Convicted (Henry Levin, 1950) HD 720p VOSE

Publica y encuentra enlaces p2p de filmes hasta 1980 en esta sección.
Responder
Avatar de Usuario
DMMD
Mensajes: 1910
Registrado: Lun 27 Feb, 2012 14:16

Convicted (Henry Levin, 1950) HD 720p VOSE

Mensaje por DMMD » Vie 12 Ago, 2022 17:22

Imagen


Imagen




Drama en presidio


Título original Convicted
Año 1950
Duración 91 min.
País Imagen
Dirección Henry Levin
Guion William Bowers, Fred Niblo Jr., Seton I. Miller. Obra: Martin Flavin
Música George Duning
Fotografía Burnett Guffey (B&W)
Reparto
Glenn Ford, Broderick Crawford, Millard Mitchell, Dorothy Malone, Carl Benton Reid, Frank Faylen, Will Geer, Martha Stewart, Henry O'Neill, Douglas Kennedy, Roland Winters, Ed Begley, Wilton Graff

Productora Columbia Pictures
Género Cine negro. Drama. Acción. Aventuras | Drama carcelario. Crimen. Remake
Sinopsis
Joe Hufford ha cometido un homicidio accidental. Debido a las implicaciones políticas del suceso, la pena que le imponen es más grave que en circunstancias normales. Ya en prisión empieza a comprobar la crueldad que allí se respira, pero todo empeora cuando el fiscal que le condenó es nombrado director del penal. (FILMAFFINITY)


Imagen

Vídeo:

- Encode a partir de la edición del Bluray de Indicator

- Encode bastante puñetero, he tirado por el camino de en medio, sin que se fuese mucho de peso. :cabezon:


Imagen Imagen Imagen Imagen Imagen Imagen Imagen Imagen Imagen Imagen


Imagen


Código: Seleccionar todo

General
Unique ID                                : 155695897866957159640737880300078139912 (0x7521F06EE36F421E3B1C243CE14A8A08)
Complete name                            : D:\Incoming\1950-Convicted.BRx264.720p.AAC.(DMMD).mkv
Format                                   : Matroska
Format version                           : Version 4
File size                                : 5.17 GiB
Duration                                 : 1 h 30 min
Overall bit rate                         : 8 143 kb/s
Movie name                               : 1950-Convicted.BRx264.720p.AAC.(DMMD)
Encoded date                             : UTC 2022-08-12 14:57:45
Writing application                      : mkvmerge v69.0.0 ('Day And Age') 64-bit
Writing library                          : libebml v1.4.2 + libmatroska v1.6.4
Attachments                              : 1 / 2 / 3 / 4 / 5

Video
ID                                       : 1
Format                                   : AVC
Format/Info                              : Advanced Video Codec
Format profile                           : High@L4.1
Format settings                          : CABAC / 12 Ref Frames
Format settings, CABAC                   : Yes
Format settings, Reference frames        : 12 frames
Codec ID                                 : V_MPEG4/ISO/AVC
Duration                                 : 1 h 30 min
Bit rate                                 : 7 987 kb/s
Width                                    : 960 pixels
Height                                   : 720 pixels
Display aspect ratio                     : 4:3
Frame rate mode                          : Constant
Frame rate                               : 23.976 (24000/1001) FPS
Color space                              : YUV
Chroma subsampling                       : 4:2:0
Bit depth                                : 8 bits
Scan type                                : Progressive
Bits/(Pixel*Frame)                       : 0.482
Stream size                              : 5.07 GiB (98%)
Title                                    : Powerhouse Films
Writing library                          : x264 core 152 r2851kMod ba24899
Encoding settings                        : cabac=1 / ref=12 / deblock=1:-3:-3 / analyse=0x3:0x133 / me=umh / subme=10 / psy=1 / fade_compensate=0.00 / psy_rd=0.90:0.00 / mixed_ref=1 / me_range=24 / chroma_me=1 / trellis=2 / 8x8dct=1 / cqm=0 / deadzone=21,11 / fast_pskip=1 / chroma_qp_offset=-2 / threads=18 / lookahead_threads=4 / sliced_threads=0 / nr=0 / decimate=1 / interlaced=0 / bluray_compat=0 / constrained_intra=0 / bframes=16 / b_pyramid=2 / b_adapt=2 / b_bias=0 / direct=3 / weightb=1 / open_gop=0 / weightp=2 / keyint=250 / keyint_min=23 / scenecut=40 / intra_refresh=0 / rc_lookahead=60 / rc=2pass / mbtree=1 / bitrate=7987 / ratetol=1.0 / qcomp=0.60 / qpmin=0 / qpmax=69 / qpstep=4 / cplxblur=20.0 / qblur=0.5 / ip_ratio=1.40 / aq=1:0.50
Language                                 : English
Default                                  : Yes
Forced                                   : No

Audio
ID                                       : 2
Format                                   : AAC LC
Format/Info                              : Advanced Audio Codec Low Complexity
Codec ID                                 : A_AAC-2
Duration                                 : 1 h 30 min
Bit rate                                 : 132 kb/s
Channel(s)                               : 1 channel
Channel layout                           : C
Sampling rate                            : 48.0 kHz
Frame rate                               : 46.875 FPS (1024 SPF)
Compression mode                         : Lossy
Delay relative to video                  : 9 ms
Stream size                              : 86.9 MiB (2%)
Language                                 : English
Default                                  : Yes
Forced                                   : No

Text #1
ID                                       : 3
Format                                   : UTF-8
Codec ID                                 : S_TEXT/UTF8
Codec ID/Info                            : UTF-8 Plain Text
Duration                                 : 1 h 30 min
Bit rate                                 : 70 b/s
Count of elements                        : 1412
Stream size                              : 46.9 KiB (0%)
Language                                 : Spanish
Default                                  : No
Forced                                   : No

Text #2
ID                                       : 4
Format                                   : UTF-8
Codec ID                                 : S_TEXT/UTF8
Codec ID/Info                            : UTF-8 Plain Text
Duration                                 : 1 h 29 min
Bit rate                                 : 77 b/s
Count of elements                        : 1391
Stream size                              : 50.9 KiB (0%)
Language                                 : English
Default                                  : No
Forced                                   : No

Text #3
ID                                       : 5
Format                                   : PGS
Muxing mode                              : zlib
Codec ID                                 : S_HDMV/PGS
Codec ID/Info                            : Picture based subtitle format used on BDs/HD-DVDs
Duration                                 : 1 h 29 min
Bit rate                                 : 52.2 kb/s
Count of elements                        : 2892
Stream size                              : 33.3 MiB (1%)
Title                                    : SDH
Language                                 : English
Default                                  : No
Forced                                   : No

Menu
00:00:00.000                             : en:Chapter 1
00:10:49.107                             : en:Chapter 2
00:16:38.956                             : en:Chapter 3
00:27:41.118                             : en:Chapter 4
00:35:06.062                             : en:Chapter 5
00:44:43.139                             : en:Chapter 6
00:57:35.577                             : en:Chapter 7
01:05:11.074                             : en:Chapter 8
01:17:04.829                             : en:Chapter 9
01:21:51.990                             : en:Chapter 10



Imagen



BDRip 720p Vs Dvd Ntsc (TCM Vault Collection & Sony Pictures )

Imagen
Imagen



Imagen



Audio y subtitulos:

- Para la V.O. audio AAC pasado del Blu-ray. (LPCM Audio / 1.0 / 48 kHz / 1152 kbps / 24-bit), subs extraídos del Bluray.

- Sub castizos gracias a gamboler :pistolero:


Imagen



CAPTURAS

Imagen
Imagen
Imagen
Imagen
Imagen
Imagen
Imagen
Imagen

Imagen




Enlaces de descarga

Imagen

ed2k link1950-Convicted.BRx264.720p.AAC.(DMMD).mkv ed2k link stats




Imagen

Avatar de Usuario
Dardo
Arrow Thrower Clown
Mensajes: 17505
Registrado: Dom 19 Oct, 2003 02:00
Ubicación: Entre Encinas y Dolomías

Re: Convicted (1950, Henry Levin) HD 720p VOSE

Mensaje por Dardo » Vie 12 Ago, 2022 17:58

:yes: :yes: :yes:

Avatar de Usuario
ostrata
Mensajes: 2554
Registrado: Mié 24 Mar, 2010 17:29

Re: Convicted (1950, Henry Levin) HD 720p VOSE

Mensaje por ostrata » Vie 12 Ago, 2022 18:24

Gracias. :)

Saludos.

Avatar de Usuario
eulsus
Mensajes: 2131
Registrado: Vie 18 May, 2007 10:41
Ubicación: La Palma

Re: Convicted (Henry Levin, 1950) HD 720p VOSE

Mensaje por eulsus » Vie 12 Ago, 2022 23:19

¡Qué gran cosecha estamos recolectando!😀
Imagen
Antonio García-Trevijano Forte (1927-2018)
"Para que yo sea libre, todos tienen que ser libres"

Abstención activa hasta que haya Libertad Colectiva

Avatar de Usuario
miguel_HammerFilms
Mensajes: 1337
Registrado: Vie 18 May, 2007 11:23

Re: Convicted (Henry Levin, 1950) HD 720p VOSE

Mensaje por miguel_HammerFilms » Sab 13 Ago, 2022 18:25

Y otro noir renovado.
Muchas gracias DMMD :D :D
Imagen

Avatar de Usuario
paizoco
Mensajes: 2899
Registrado: Vie 21 Nov, 2003 01:00
Ubicación: Far West

Re: Convicted (Henry Levin, 1950) HD 720p VOSE

Mensaje por paizoco » Dom 14 Ago, 2022 18:00

Me apunto, muchas gracias.

Avatar de Usuario
Spanish Jhonny
Mensajes: 3422
Registrado: Mar 18 Sep, 2012 16:01

Re: Convicted (Henry Levin, 1950) HD 720p VOSE

Mensaje por Spanish Jhonny » Mar 16 Ago, 2022 00:15

A la mañana le pego un picotazo.
Muchas gracias DMMD, tiene muy buena pinta. :yes:
Saludos.

Avatar de Usuario
WalterBurns
Mensajes: 1226
Registrado: Dom 11 Oct, 2015 15:08

Re: Convicted (Henry Levin, 1950) HD 720p VOSE

Mensaje por WalterBurns » Dom 21 Ago, 2022 14:00

Gracias por compartirla.

Avatar de Usuario
mith34
Mensajes: 327
Registrado: Dom 10 Ene, 2010 13:10
Ubicación: Áqaba

Re: Convicted (Henry Levin, 1950) HD 720p VOSE

Mensaje por mith34 » Dom 21 Ago, 2022 17:23

Muchas gracias, DMMD!

Esta película es un remake de El código criminal, de Howard Hawks, pero pasada por el código Hays, con lo que eso supone.

Y un dato curioso, de esta película se han hecho tres doblajes, y ninguno de ellos está disponible a día de hoy en la red.

Saludos.

joramor
Mensajes: 1861
Registrado: Vie 05 Nov, 2010 19:55

Re: Convicted (Henry Levin, 1950) HD 720p VOSE

Mensaje por joramor » Dom 21 Ago, 2022 23:14

Muchas gracias, DMMD.Salu2.

Avatar de Usuario
carrido
Mensajes: 634
Registrado: Mié 19 Feb, 2014 15:58
Ubicación: Freedonia

Re: Convicted (Henry Levin, 1950) HD 720p VOSE

Mensaje por carrido » Lun 22 Ago, 2022 16:15

Muchísimas gracias DMMD; como siempre poniendo sensacional cine de genero (en este caso Negro).




:plas: :plas: :plas: :plas: :plas: :plas: :plas: :plas: :plas: :plas:
Carrido

Responder