The Family Secret (Henry Levin, 1951) HD 720p VOSE

Publica y encuentra enlaces p2p de filmes hasta 1980 en esta sección.
Responder
Avatar de Usuario
DMMD
Mensajes: 1910
Registrado: Lun 27 Feb, 2012 14:16

The Family Secret (Henry Levin, 1951) HD 720p VOSE

Mensaje por DMMD » Mié 10 Ago, 2022 14:35

Imagen


Imagen

Secreto de familia


Título original The Family Secret
Año 1951
Duración 85 min
País Imagen
Dirección Henry Levin
Guion James P. Cavanagh, Francis M. Cockrell, Andrew Solt. Relato: Marie Baumer
Música George Duning
Fotografía Burnett Guffey (B&W)
Reparto
John Derek, Lee J. Cobb, Jody Lawrance, Erin O'Brien-Moore, Santos Ortega, Henry O'Neill, Carl Benton Reid, Peggy Converse, Jean Alexander, Dorothy Tree, Whit Bissell, Raymond Greenleaf, Onslow Stevens, Amanda Blake, Fred F. Sears

Productora Santana Pictures Corporation
Género Drama | Crimen. Drama judicial / Abogados/as
Sinopsis
La película narra la peliaguda situación familiar que se produce cuando el hijo de un abogado mata por accidente a su mejor amigo. Él prefiere que su hijo confiese el hecho, mientras que su madre le pide que no lo haga y que se olvide del asunto. Al final gana la madre. Y lo malo viene cuando el padre es designado como defensor de un inocente que es acusado del asesinato. (FILMAFFINITY)



Imagen

Vídeo:

- Encode a partir de la edición del Bluray de Indicator


Imagen Imagen Imagen Imagen Imagen Imagen Imagen Imagen Imagen Imagen Imagen Imagen

Código: Seleccionar todo

General
Unique ID                                : 327443844715414170617392747673394086402 (0xF65763FC051EC480096FB8C133480202)
Complete name                            : D:\Incoming\1951-The.Family.Secret.BRx264.720p.AAC.(DMMD).mkv
Format                                   : Matroska
Format version                           : Version 4
File size                                : 4.23 GiB
Duration                                 : 1 h 24 min
Overall bit rate                         : 7 138 kb/s
Movie name                               : 1951-The.Family.Secret.BRx264.720p.AAC.(DMMD)
Encoded date                             : UTC 2022-08-08 10:53:48
Writing application                      : mkvmerge v69.0.0 ('Day And Age') 64-bit
Writing library                          : libebml v1.4.2 + libmatroska v1.6.4
Attachments                              : 1 / 2 / 3

Video
ID                                       : 1
Format                                   : AVC
Format/Info                              : Advanced Video Codec
Format profile                           : High@L4.1
Format settings                          : CABAC / 12 Ref Frames
Format settings, CABAC                   : Yes
Format settings, Reference frames        : 12 frames
Codec ID                                 : V_MPEG4/ISO/AVC
Duration                                 : 1 h 24 min
Bit rate                                 : 6 982 kb/s
Width                                    : 960 pixels
Height                                   : 720 pixels
Display aspect ratio                     : 4:3
Frame rate mode                          : Constant
Frame rate                               : 23.976 (24000/1001) FPS
Color space                              : YUV
Chroma subsampling                       : 4:2:0
Bit depth                                : 8 bits
Scan type                                : Progressive
Bits/(Pixel*Frame)                       : 0.421
Stream size                              : 4.14 GiB (98%)
Title                                    : Powerhouse Films
Writing library                          : x264 core 152 r2851kMod ba24899
Encoding settings                        : cabac=1 / ref=12 / deblock=1:-3:-3 / analyse=0x3:0x133 / me=umh / subme=11 / psy=1 / fade_compensate=0.00 / psy_rd=1.00:0.00 / mixed_ref=1 / me_range=24 / chroma_me=1 / trellis=2 / 8x8dct=1 / cqm=0 / deadzone=21,11 / fast_pskip=0 / chroma_qp_offset=-2 / threads=6 / lookahead_threads=1 / sliced_threads=0 / nr=0 / decimate=0 / interlaced=0 / bluray_compat=0 / constrained_intra=0 / bframes=8 / b_pyramid=2 / b_adapt=2 / b_bias=0 / direct=3 / weightb=1 / open_gop=0 / weightp=2 / keyint=250 / keyint_min=23 / scenecut=40 / intra_refresh=0 / rc=crf / mbtree=0 / crf=19.0000 / qcomp=0.65 / qpmin=0 / qpmax=69 / qpstep=4 / ip_ratio=1.30 / pb_ratio=1.20 / aq=3:0.55
Language                                 : English
Default                                  : Yes
Forced                                   : No

Audio
ID                                       : 2
Format                                   : AAC LC
Format/Info                              : Advanced Audio Codec Low Complexity
Codec ID                                 : A_AAC-2
Duration                                 : 1 h 24 min
Bit rate                                 : 132 kb/s
Channel(s)                               : 1 channel
Channel layout                           : C
Sampling rate                            : 48.0 kHz
Frame rate                               : 46.875 FPS (1024 SPF)
Compression mode                         : Lossy
Delay relative to video                  : 9 ms
Stream size                              : 79.0 MiB (2%)
Language                                 : English
Default                                  : Yes
Forced                                   : No

Text #1
ID                                       : 3
Format                                   : UTF-8
Codec ID                                 : S_TEXT/UTF8
Codec ID/Info                            : UTF-8 Plain Text
Duration                                 : 1 h 24 min
Bit rate                                 : 92 b/s
Count of elements                        : 1543
Stream size                              : 57.5 KiB (0%)
Language                                 : Spanish
Default                                  : No
Forced                                   : No

Text #2
ID                                       : 4
Format                                   : UTF-8
Codec ID                                 : S_TEXT/UTF8
Codec ID/Info                            : UTF-8 Plain Text
Duration                                 : 1 h 23 min
Bit rate                                 : 93 b/s
Count of elements                        : 1688
Stream size                              : 57.2 KiB (0%)
Language                                 : English
Default                                  : No
Forced                                   : No

Text #3
ID                                       : 5
Format                                   : UTF-8
Codec ID                                 : S_TEXT/UTF8
Codec ID/Info                            : UTF-8 Plain Text
Duration                                 : 1 h 23 min
Bit rate                                 : 96 b/s
Count of elements                        : 1735
Stream size                              : 58.9 KiB (0%)
Title                                    : SDH
Language                                 : English
Default                                  : No
Forced                                   : No

Text #4
ID                                       : 6
Format                                   : PGS
Muxing mode                              : zlib
Codec ID                                 : S_HDMV/PGS
Codec ID/Info                            : Picture based subtitle format used on BDs/HD-DVDs
Duration                                 : 1 h 24 min
Bit rate                                 : 61.6 kb/s
Count of elements                        : 3473
Stream size                              : 37.4 MiB (1%)
Title                                    : Bluray
Language                                 : English
Default                                  : No
Forced                                   : No

Menu
00:00:00.000                             : en:00:00:00:000
00:09:04.586                             : en:00:09:04:586
00:18:10.381                             : en:00:18:10:381
00:24:59.998                             : en:00:24:59:998
00:34:08.171                             : en:00:34:08:171
00:44:20.449                             : en:00:44:20:449
00:49:52.114                             : en:00:49:52:114
00:57:21.396                             : en:00:57:21:396
01:06:29.360                             : en:01:06:29:360
01:15:21.142                             : en:01:15:21:142


Imagen



BDRip 720p Vs Dvd Ntsc

Imagen
Imagen



Audio y subtitulos:

- Para la V.O. audio AAC pasado del Blu-ray. (LPCM Audio / 1.0 / 48 kHz / 1152 kbps / 24-bit), subs extraídos del Bluray.

- Sub castizos gracias a hammett :pistolero:




Imagen


CAPTURAS


Imagen
Imagen
Imagen
Imagen
Imagen
Imagen

Enlaces de descarga

Imagen

ed2k link1951-The.Family.Secret.BRx264.720p.AAC.(DMMD).mkv ed2k link stats


Imagen
Última edición por DMMD el Mié 10 Ago, 2022 17:10, editado 1 vez en total.

Avatar de Usuario
Dardo
Arrow Thrower Clown
Mensajes: 17505
Registrado: Dom 19 Oct, 2003 02:00
Ubicación: Entre Encinas y Dolomías

Re: The Family Secret (Henry Levin, 1951) HD 720p VOSE

Mensaje por Dardo » Mié 10 Ago, 2022 15:32

Deliciosa!!

Click y Thanks!!! :sonrisa:

Avatar de Usuario
ostrata
Mensajes: 2554
Registrado: Mié 24 Mar, 2010 17:29

Re: The Family Secret (Henry Levin, 1951) HD 720p VOSE

Mensaje por ostrata » Mié 10 Ago, 2022 17:26

Gracias. :)

Saludos.

Avatar de Usuario
Spanish Jhonny
Mensajes: 3422
Registrado: Mar 18 Sep, 2012 16:01

Re: The Family Secret (Henry Levin, 1951) HD 720p VOSE

Mensaje por Spanish Jhonny » Mié 10 Ago, 2022 21:05

Ya está en casita.
Muchas gracias DMMD :yes:

Avatar de Usuario
castleaco
Mensajes: 307
Registrado: Vie 18 Abr, 2014 10:14

Re: The Family Secret (Henry Levin, 1951) HD 720p VOSE

Mensaje por castleaco » Jue 11 Ago, 2022 09:46

Gracias, DMMD.

Avatar de Usuario
eulsus
Mensajes: 2131
Registrado: Vie 18 May, 2007 10:41
Ubicación: La Palma

Re: The Family Secret (Henry Levin, 1951) HD 720p VOSE

Mensaje por eulsus » Jue 11 Ago, 2022 13:04

Muchas gracias, DMMD. Que pases un estupendo mes de agosto. :lol:
Imagen
Antonio García-Trevijano Forte (1927-2018)
"Para que yo sea libre, todos tienen que ser libres"

Abstención activa hasta que haya Libertad Colectiva

Avatar de Usuario
DMMD
Mensajes: 1910
Registrado: Lun 27 Feb, 2012 14:16

Re: The Family Secret (Henry Levin, 1951) HD 720p VOSE

Mensaje por DMMD » Jue 11 Ago, 2022 15:25

eulsus escribió:
Jue 11 Ago, 2022 13:04
Muchas gracias, DMMD. Que pases un estupendo mes de agosto. :lol:
Igualmente socio, la semana que viene me largo fuera, espero poder sacar todo lo que tengo pendiente y si no pues a la vuelta. :wink:

Avatar de Usuario
WalterBurns
Mensajes: 1226
Registrado: Dom 11 Oct, 2015 15:08

Re: The Family Secret (Henry Levin, 1951) HD 720p VOSE

Mensaje por WalterBurns » Dom 21 Ago, 2022 14:53

Gracias por compartirla.

Responder