The Dark Past (Rudolph Maté, 1948) HD 720p Dual SE

Publica y encuentra enlaces p2p de filmes hasta 1980 en esta sección.
Responder
Avatar de Usuario
DMMD
Mensajes: 1910
Registrado: Lun 27 Feb, 2012 14:16

The Dark Past (Rudolph Maté, 1948) HD 720p Dual SE

Mensaje por DMMD » Dom 07 Ago, 2022 17:52

Imagen


Imagen

Cerco de odio


Título original The Dark Past
Año 1948
Duración 75 min
País Imagen
Dirección Rudolph Maté
Guion Malvin Wald, Oscar Saul. Historia: Michael Blankfort, Albert Duffy, Philip MacDonald. Obra: James Warwick
Música George Duning
Fotografía Joseph Walker (B&W)
Reparto
William Holden, Nina Foch, Lee J. Cobb, Adele Jergens, Stephen Dunne, Lois Maxwell, Berry Kroeger, Steven Geray, Wilton Graff, Robert Osterloh, Kathryn Card, Robert Hyatt

Productora Columbia Pictures
Género Cine negro. Thriller | Crimen
Sinopsis
Un psicoanalista, su familia y alguno de sus amigos son retenidos como rehenes por una banda encabezada por un fugitivo acusado de asesinato. El doctor Collins trata de hablar con él para indagar en su subconsciente y descubrir sus planes. (FILMAFFINITY)



Imagen


Vídeo:

- Encode a partir de la edición del Blu-ray de Indicator


Imagen Imagen Imagen Imagen Imagen Imagen Imagen Imagen Imagen Imagen

Código: Seleccionar todo

General
Unique ID                                : 334384716317995817453613169438084984761 (0xFB9027601B622B48577A16CCABC26FB9)
Complete name                            : D:\Incoming\1948-The.Dark.Past.BRx264.720p.AAC.AC3.(DMMD).mkv
Format                                   : Matroska
Format version                           : Version 4
File size                                : 4.91 GiB
Duration                                 : 1 h 14 min
Overall bit rate                         : 9 492 kb/s
Movie name                               : 1948-The.Dark.Past.BRx264.720p.AAC.AC3.(DMMD)
Encoded date                             : UTC 2022-08-07 14:00:45
Writing application                      : mkvmerge v69.0.0 ('Day And Age') 64-bit
Writing library                          : libebml v1.4.2 + libmatroska v1.6.4
Attachments                              : 1 / 2 / 3

Video
ID                                       : 1
Format                                   : AVC
Format/Info                              : Advanced Video Codec
Format profile                           : High@L4.1
Format settings                          : CABAC / 12 Ref Frames
Format settings, CABAC                   : Yes
Format settings, Reference frames        : 12 frames
Codec ID                                 : V_MPEG4/ISO/AVC
Duration                                 : 1 h 14 min
Bit rate                                 : 9 146 kb/s
Width                                    : 956 pixels
Height                                   : 720 pixels
Display aspect ratio                     : 4:3
Frame rate mode                          : Constant
Frame rate                               : 23.976 (24000/1001) FPS
Color space                              : YUV
Chroma subsampling                       : 4:2:0
Bit depth                                : 8 bits
Scan type                                : Progressive
Bits/(Pixel*Frame)                       : 0.554
Stream size                              : 4.73 GiB (96%)
Title                                    : Powerhouse Films
Writing library                          : x264 core 152 r2851kMod ba24899
Encoding settings                        : cabac=1 / ref=12 / deblock=1:-3:-3 / analyse=0x3:0x133 / me=umh / subme=11 / psy=1 / fade_compensate=0.00 / psy_rd=1.05:0.00 / mixed_ref=1 / me_range=24 / chroma_me=1 / trellis=2 / 8x8dct=1 / cqm=0 / deadzone=21,11 / fast_pskip=0 / chroma_qp_offset=-2 / threads=6 / lookahead_threads=1 / sliced_threads=0 / nr=0 / decimate=0 / interlaced=0 / bluray_compat=0 / constrained_intra=0 / bframes=8 / b_pyramid=2 / b_adapt=2 / b_bias=0 / direct=3 / weightb=1 / open_gop=0 / weightp=2 / keyint=250 / keyint_min=23 / scenecut=40 / intra_refresh=0 / rc=crf / mbtree=0 / crf=18.2000 / qcomp=0.65 / qpmin=0 / qpmax=69 / qpstep=4 / ip_ratio=1.30 / pb_ratio=1.10 / aq=3:0.55
Language                                 : English
Default                                  : Yes
Forced                                   : No

Audio #1
ID                                       : 2
Format                                   : AAC LC
Format/Info                              : Advanced Audio Codec Low Complexity
Codec ID                                 : A_AAC-2
Duration                                 : 1 h 14 min
Bit rate                                 : 132 kb/s
Channel(s)                               : 1 channel
Channel layout                           : C
Sampling rate                            : 48.0 kHz
Frame rate                               : 46.875 FPS (1024 SPF)
Compression mode                         : Lossy
Delay relative to video                  : 9 ms
Stream size                              : 70.8 MiB (1%)
Language                                 : English
Default                                  : Yes
Forced                                   : No

Audio #2
ID                                       : 3
Format                                   : AC-3
Format/Info                              : Audio Coding 3
Commercial name                          : Dolby Digital
Codec ID                                 : A_AC3
Duration                                 : 1 h 14 min
Bit rate mode                            : Constant
Bit rate                                 : 192 kb/s
Channel(s)                               : 2 channels
Channel layout                           : L R
Sampling rate                            : 48.0 kHz
Frame rate                               : 31.250 FPS (1536 SPF)
Compression mode                         : Lossy
Stream size                              : 102 MiB (2%)
Language                                 : Spanish
Service kind                             : Complete Main
Default                                  : No
Forced                                   : No

Text #1
ID                                       : 4
Format                                   : UTF-8
Codec ID                                 : S_TEXT/UTF8
Codec ID/Info                            : UTF-8 Plain Text
Duration                                 : 1 h 13 min
Bit rate                                 : 64 b/s
Count of elements                        : 808
Stream size                              : 34.9 KiB (0%)
Language                                 : Spanish
Default                                  : No
Forced                                   : No

Text #2
ID                                       : 5
Format                                   : UTF-8
Codec ID                                 : S_TEXT/UTF8
Codec ID/Info                            : UTF-8 Plain Text
Duration                                 : 1 h 12 min
Bit rate                                 : 79 b/s
Count of elements                        : 1154
Stream size                              : 42.2 KiB (0%)
Language                                 : English
Default                                  : No
Forced                                   : No

Text #3
ID                                       : 6
Format                                   : PGS
Muxing mode                              : zlib
Codec ID                                 : S_HDMV/PGS
Codec ID/Info                            : Picture based subtitle format used on BDs/HD-DVDs
Duration                                 : 1 h 12 min
Bit rate                                 : 51.1 kb/s
Count of elements                        : 2308
Stream size                              : 26.5 MiB (1%)
Language                                 : English
Default                                  : No
Forced                                   : No

Menu
00:00:00.000                             : en:01
00:07:42.962                             : en:02
00:13:04.826                             : en:03
00:22:06.492                             : en:04
00:28:08.687                             : en:05
00:37:42.218                             : en:06
00:47:50.451                             : en:07
00:56:02.859                             : en:08
01:02:04.596                             : en:09
01:08:19.012                             : en:10



Imagen


BDRip 720p Vs Dvd Pal

Imagen
Imagen



Imagen




Audio y subtitulos:

- Para la V.O. audio AAC pasado del Blu-ray. (LPCM Audio / 1.0 / 48 kHz / 1152 kbps / 24-bit), subs extraídos del Bluray.

- Audio y sub para el doblaje descargados por la mula. ( :plas: )



Imagen


CAPTURAS


Imagen
Imagen
Imagen
Imagen
Imagen
Imagen
Imagen
Imagen
Imagen
Imagen
Imagen




Imagen



Enlaces de descarga

Imagen

ed2k link1948-The.Dark.Past.BRx264.720p.AAC.AC3.(DMMD).mkv ed2k link stats


Imagen

Avatar de Usuario
paizoco
Mensajes: 2899
Registrado: Vie 21 Nov, 2003 01:00
Ubicación: Far West

Re: The Dark Past (Rudolph Maté, 1948) HD 720p Dual SE

Mensaje por paizoco » Dom 07 Ago, 2022 18:22

Me apunto, muchas gracias.

Avatar de Usuario
Satori
Mensajes: 82
Registrado: Jue 31 Mar, 2022 16:16

Re: The Dark Past (Rudolph Maté, 1948) HD 720p Dual SE

Mensaje por Satori » Dom 07 Ago, 2022 19:01

Muchas Gracias !! Habrá que jubilar el dvdrip y clickar la sustancial mejora

Avatar de Usuario
carrido
Mensajes: 634
Registrado: Mié 19 Feb, 2014 15:58
Ubicación: Freedonia

Re: The Dark Past (Rudolph Maté, 1948) HD 720p Dual SE

Mensaje por carrido » Dom 07 Ago, 2022 20:21

Muchísimas gracias DMMD; otra estupenda muestra de cine negro de finales de los 40 del siglo pasado.


:plas: :plas: :plas: :plas: :plas: :plas: :plas: :plas: :plas: :plas:
Carrido

Avatar de Usuario
ostrata
Mensajes: 2554
Registrado: Mié 24 Mar, 2010 17:29

Re: The Dark Past (Rudolph Maté, 1948) HD 720p Dual SE

Mensaje por ostrata » Dom 07 Ago, 2022 22:25

Gracias. :)

Saludos.

Avatar de Usuario
Dardo
Arrow Thrower Clown
Mensajes: 17505
Registrado: Dom 19 Oct, 2003 02:00
Ubicación: Entre Encinas y Dolomías

Re: The Dark Past (Rudolph Maté, 1948) HD 720p Dual SE

Mensaje por Dardo » Dom 07 Ago, 2022 22:53

Madre mía qué cambio del Bluray al PAL... :roll:

Están los rippers que se salen, cómo me gusta!!

:plas: :plas:

Avatar de Usuario
Forrest Gump
Mensajes: 1697
Registrado: Vie 18 May, 2007 18:06
Ubicación: Zihuatanejo

Re: The Dark Past (Rudolph Maté, 1948) HD 720p Dual SE

Mensaje por Forrest Gump » Lun 08 Ago, 2022 06:28

Qué alegría ver a DMMD tan activo. Ya mismo jubilo un BDRip que bajé hace un tiempo. :D
Made it, Ma, top of the world!

Avatar de Usuario
Spanish Jhonny
Mensajes: 3422
Registrado: Mar 18 Sep, 2012 16:01

Re: The Dark Past (Rudolph Maté, 1948) HD 720p Dual SE

Mensaje por Spanish Jhonny » Lun 08 Ago, 2022 15:09

Muchas gracias :sonrisa: :plas: :plas:

Avatar de Usuario
loga
Mensajes: 582
Registrado: Jue 09 Ago, 2012 13:54

Re: The Dark Past (Rudolph Maté, 1948) HD 720p Dual SE

Mensaje por loga » Mar 09 Ago, 2022 10:52

Estupendo poder disponer de las dos versiones de la misma historia de la mejor manera posible, gracias a ti, DMMD, y a roisiano (viewtopic.php?f=1002&t=69119&p=920354&h ... as#p920354).
A modo de curiosidad, Blind alley y The dark past comparten la misma nota (6,3) en IMDB.

Avatar de Usuario
Dardo
Arrow Thrower Clown
Mensajes: 17505
Registrado: Dom 19 Oct, 2003 02:00
Ubicación: Entre Encinas y Dolomías

Re: The Dark Past (Rudolph Maté, 1948) HD 720p Dual SE

Mensaje por Dardo » Mar 09 Ago, 2022 12:27

loga escribió:
Mar 09 Ago, 2022 10:52
Estupendo poder disponer de las dos versiones de la misma historia de la mejor manera posible, gracias a ti, DMMD, y a roisiano (viewtopic.php?f=1002&t=69119&p=920354&h ... as#p920354).
A modo de curiosidad, Blind alley y The dark past comparten la misma nota (6,3) en IMDB.
Qué bueno leerte, estabas "mu desaparecío".... :sonrisa:

Avatar de Usuario
janca
Mensajes: 2255
Registrado: Dom 20 Dic, 2009 09:31

Re: The Dark Past (Rudolph Maté, 1948) HD 720p Dual SE

Mensaje por janca » Mar 09 Ago, 2022 14:53

Muchas gracias DMMD

Avatar de Usuario
loga
Mensajes: 582
Registrado: Jue 09 Ago, 2012 13:54

Re: The Dark Past (Rudolph Maté, 1948) HD 720p Dual SE

Mensaje por loga » Mié 10 Ago, 2022 20:24

Dardo escribió:
Mar 09 Ago, 2022 12:27
Qué bueno leerte, estabas "mu desaparecío".... :sonrisa:
Gracias Dardo :) . En realidad no he dejado de vigilaros :mrgreen: .

Avatar de Usuario
WalterBurns
Mensajes: 1226
Registrado: Dom 11 Oct, 2015 15:08

Re: The Dark Past (Rudolph Maté, 1948) HD 720p Dual SE

Mensaje por WalterBurns » Sab 24 Sep, 2022 16:49

Gracias por compartirla.

Responder