Tu mano en la mía (Melville Shavelson, 1959) HD 720p Dual SE

Publica y encuentra enlaces p2p de filmes hasta 1980 en esta sección.
Responder
Avatar de Usuario
DCINE
Mensajes: 652
Registrado: Mar 20 Dic, 2016 15:02

Tu mano en la mía (Melville Shavelson, 1959) HD 720p Dual SE

Mensaje por DCINE » Vie 24 Jun, 2022 08:35

Tu mano en la mía
(The Five Pennies)

1959

Imagen

AKA: I cinque penny/Millionnaire de cinq sous/Fünf Pennies

DIRECTOR: Melville Shavelson
PRODUCTORA: Paramount Pictures, Dena Productions
GUIÓN: Melville Shavelson, Jack Rose. Novela: Robert Smith
MÚSICA: Leith Stevens
FOTOGRAFÍA: Daniel L. Fapp


Imagen

ImagenImagenImagen
Imagen



ARGUMENTO Biografía del trompetista de jazz Ernest Loring Nichols, 'Red Nichols'. Cuenta como empezó en el mundo de la música hasta formar su propia banda 'The Five Pennies'. (FILMAFFINITY) IMDB: https://www.imdb.com/title/tt0052809/


ImagenImagenImagen
ImagenImagenImagen
ImagenImagenImagen
ImagenImagen


Reparto: Danny Kaye, Barbara Bel Geddes, Louis Armstrong, Harry Guardino, Bob Crosby, Bobby Troup, Susan Gordon, Tuesday Weld, Ray Daley



Datos técnicos

Video: Ripeo 1080p de SbR obtenido de rutracker, codificado a 720p

Audios:

V.O. (Inglés): En AC-3.

Doblajes:

Español: El de su estreno en cines de 1961. De un TVRip grabado de Tele5 en los 90', encontrado en emule.

Italiano: El de su estreno en cines de 1960. De un DVDRip encontrado en emule.

Francés: El de su estreno en cines de 1960. De un DVDRip encontrado en emule.

Alemán: El de su estreno en cines de 1960. De un DVDRip encontrado en emule.


Subtítulos:
En SubRip. Ingleses ya incluidos y españoles de opensubtitles. Forzados en español para las canciones y los tramos perdidos sin doblaje por culpa de los cortes publicitarios.

Código: Seleccionar todo

General:
General
Unique ID                        : 210162096904929372588147910339456293627 (0x9E1BBF601F003D72B739748C05165AFB)
Complete name                    : 1959 Tu mano en la mía (The Five Pennies) (Melville Shavelson) WEB-DLRip 720p (Spa (Doblaje Cines 1961)-Eng-Ita-Fre-Ger) SE-I by SbR-DCINE.mkv
Format                           : Matroska
Format version                   : Version 4 / Version 2
File size                        : 4.02 GiB
Duration                         : 1h 57mn
Overall bit rate                 : 4 902 Kbps
Movie name                       : 1959 Tu mano en la mía/The Five Pennies/I cinque penny/Millionnaire de cinq sous/Fünf Pennies (Melville Shavelson, 1959) WEB-DLRip 720p (Spa (Doblaje Cines 1961)-Eng-Ita (Doppiaggio originale 1960)-Fre (Doublage original 1960)-Ger (Synchronisation von 1960)) SE-I by SbR-DCINE.mkv
Encoded date                     : UTC 2022-03-24 16:30:23
Writing application              : mkvmerge v7.1.0 ('Good Love') 32bit built on Jul 27 2014 12:59:18
Writing library                  : libebml v1.3.0 + libmatroska v1.4.1
DURATION                         : 01:56:39.499000000
NUMBER_OF_FRAMES                 : 1493
NUMBER_OF_BYTES                  : 61676
_STATISTICS_WRITING_APP          : mkvmerge v7.1.0 ('Good Love') 32bit built on Jul 27 2014 12:59:18
_STATISTICS_WRITING_DATE_UTC     : 2022-03-24 16:30:23
_STATISTICS_TAGS                 : BPS DURATION NUMBER_OF_FRAMES NUMBER_OF_BYTES
Attachment                       : Yes

Video
ID                               : 1
Format                           : AVC
Format/Info                      : Advanced Video Codec
Format profile                   : Main@L4.1
Format settings, CABAC           : Yes
Format settings, ReFrames        : 9 frames
Codec ID                         : V_MPEG4/ISO/AVC
Duration                         : 1h 57mn
Bit rate                         : 3 588 Kbps
Width                            : 1 276 pixels
Height                           : 720 pixels
Display aspect ratio             : 16:9
Frame rate mode                  : Variable
Frame rate                       : 23.976 fps
Color space                      : YUV
Chroma subsampling               : 4:2:0
Bit depth                        : 8 bits
Scan type                        : Progressive
Bits/(Pixel*Frame)               : 0.163
Stream size                      : 2.94 GiB (73%)
Writing library                  : x264 core 157 r2935 545de2f
Encoding settings                : cabac=1 / ref=9 / deblock=1:0:0 / analyse=0x1:0x131 / me=umh / subme=10 / psy=1 / psy_rd=1.00:0.00 / mixed_ref=1 / me_range=24 / chroma_me=1 / trellis=2 / 8x8dct=0 / cqm=0 / deadzone=21,11 / fast_pskip=1 / chroma_qp_offset=-2 / threads=12 / lookahead_threads=2 / sliced_threads=0 / nr=0 / decimate=1 / interlaced=0 / bluray_compat=0 / constrained_intra=0 / bframes=8 / b_pyramid=2 / b_adapt=2 / b_bias=0 / direct=3 / weightb=1 / open_gop=0 / weightp=2 / keyint=240 / keyint_min=24 / scenecut=40 / intra_refresh=0 / rc_lookahead=60 / rc=crf / mbtree=1 / crf=18.0 / qcomp=0.60 / qpmin=0 / qpmax=69 / qpstep=4 / vbv_maxrate=50000 / vbv_bufsize=62500 / crf_max=0.0 / nal_hrd=none / filler=0 / ip_ratio=1.40 / aq=1:1.00
Default                          : Yes
Forced                           : No
DURATION                         : 01:57:19.950000000
NUMBER_OF_FRAMES                 : 168790
NUMBER_OF_BYTES                  : 3239870719
_STATISTICS_WRITING_APP          : mkvmerge v7.1.0 ('Good Love') 32bit built on Jul 27 2014 12:59:18
_STATISTICS_WRITING_DATE_UTC     : 2022-03-24 16:30:23
_STATISTICS_TAGS                 : BPS DURATION NUMBER_OF_FRAMES NUMBER_OF_BYTES
Color primaries                  : BT.709-5, BT.1361, IEC 61966-2-4, SMPTE RP177
Transfer characteristics         : BT.709-5, BT.1361
Matrix coefficients              : BT.709-5, BT.1361, IEC 61966-2-4 709, SMPTE RP177

Audio #1
ID                               : 2
Format                           : AC-3
Format/Info                      : Audio Coding 3
Mode extension                   : CM (complete main)
Codec ID                         : A_AC3
Duration                         : 1h 57mn
Bit rate mode                    : Constant
Bit rate                         : 192 Kbps
Channel(s)                       : 1 channel
Channel positions                : Front: C
Sampling rate                    : 48.0 KHz
Bit depth                        : 16 bits
Compression mode                 : Lossy
Stream size                      : 161 MiB (4%)
Title                            : Doblaje Cines 1961 (Sync by DCINE) (Audio emisión Tele5 Años 90)
Language                         : Spanish
Default                          : Yes
Forced                           : Yes

Audio #2
ID                               : 3
Format                           : AC-3
Format/Info                      : Audio Coding 3
Mode extension                   : CM (complete main)
Codec ID                         : A_AC3
Duration                         : 1h 57mn
Bit rate mode                    : Constant
Bit rate                         : 448 Kbps
Channel(s)                       : 6 channels
Channel positions                : Front: L C R, Side: L R, LFE
Sampling rate                    : 48.0 KHz
Bit depth                        : 16 bits
Compression mode                 : Lossy
Stream size                      : 376 MiB (9%)
Language                         : English
Default                          : No
Forced                           : No

Audio #3
ID                               : 4
Format                           : AC-3
Format/Info                      : Audio Coding 3
Mode extension                   : CM (complete main)
Codec ID                         : A_AC3
Duration                         : 1h 57mn
Bit rate mode                    : Constant
Bit rate                         : 192 Kbps
Channel(s)                       : 1 channel
Channel positions                : Front: C
Sampling rate                    : 48.0 KHz
Bit depth                        : 16 bits
Compression mode                 : Lossy
Stream size                      : 161 MiB (4%)
Title                            : Doppiaggio originale 1960
Language                         : Italian
Default                          : No
Forced                           : No

Audio #4
ID                               : 5
Format                           : AC-3
Format/Info                      : Audio Coding 3
Mode extension                   : CM (complete main)
Codec ID                         : A_AC3
Duration                         : 1h 57mn
Bit rate mode                    : Constant
Bit rate                         : 192 Kbps
Channel(s)                       : 1 channel
Channel positions                : Front: C
Sampling rate                    : 48.0 KHz
Bit depth                        : 16 bits
Compression mode                 : Lossy
Stream size                      : 161 MiB (4%)
Title                            : Doublage original 1960
Language                         : French
Default                          : No
Forced                           : No

Audio #5
ID                               : 6
Format                           : AC-3
Format/Info                      : Audio Coding 3
Mode extension                   : CM (complete main)
Codec ID                         : A_AC3
Duration                         : 1h 57mn
Bit rate mode                    : Constant
Bit rate                         : 192 Kbps
Channel(s)                       : 1 channel
Channel positions                : Front: C
Sampling rate                    : 48.0 KHz
Bit depth                        : 16 bits
Compression mode                 : Lossy
Stream size                      : 161 MiB (4%)
Title                            : Synchronisation von 1960
Language                         : German
Default                          : No
Forced                           : No

Text #1
ID                               : 7
Format                           : UTF-8
Codec ID                         : S_TEXT/UTF8
Codec ID/Info                    : UTF-8 Plain Text
Title                            : Forzados para tramos perdidos y canciones
Language                         : Spanish
Default                          : Yes
Forced                           : Yes

Text #2
ID                               : 8
Format                           : UTF-8
Codec ID                         : S_TEXT/UTF8
Codec ID/Info                    : UTF-8 Plain Text
Language                         : Spanish
Default                          : No
Forced                           : No

Text #3
ID                               : 9
Format                           : UTF-8
Codec ID                         : S_TEXT/UTF8
Codec ID/Info                    : UTF-8 Plain Text
Language                         : English
Default                          : No
Forced                           : No

Text #4
ID                               : 10
Format                           : UTF-8
Codec ID                         : S_TEXT/UTF8
Codec ID/Info                    : UTF-8 Plain Text
Title                            : SDH
Language                         : English
Default                          : No
Forced                           : No

Menu #1
00:00:00.000                     : :01. New Kid In Town
00:09:44.209                     : :02. Nightclub Debut
00:20:31.939                     : :03. An Insincere Dedication
00:26:00.684                     : :04. Wedding Night Jitters
00:31:25.717                     : :05. Career Sabotage
00:36:43.118                     : :06. Nex Stop, Carnegie!
00:46:02.551                     : :07. Another Mouth to Feed
00:53:20.322                     : :08. Up Past Bedtime
01:03:02.654                     : :09. Out on the Town
01:11:07.054                     : :10. Family Decision
01:19:09.787                     : :11. Tragic News
01:26:36.149                     : :12. A Stay-At-Home Father
01:34:33.626                     : :13. A Past Nearly Forgotten
01:42:53.834                     : :14. Old Bandmates
01:49:22.765                     : :15. The Comeback Kid

Menu #2
00:00:00.000                     : en:01. New Kid In Town
00:09:44.198                     : en:02. Nightclub Debut
00:20:31.865                     : en:03. An Insincere Dedication
00:26:00.532                     : en:04. Wedding Night Jitters
00:31:25.566                     : en:05. Career Sabotage
00:36:43.099                     : en:06. Nex Stop, Carnegie!
00:46:02.432                     : en:07. Another Mouth to Feed
00:53:20.232                     : en:08. Up Past Bedtime
01:03:02.432                     : en:09. Out on the Town
01:11:06.999                     : en:10. Family Decision
01:19:09.733                     : en:11. Tragic News
01:26:36.066                     : en:12. A Stay-At-Home Father
01:34:33.599                     : en:13. A Past Nearly Forgotten
01:42:53.765                     : en:14. Old Bandmates
01:49:22.732                     : en:15. The Comeback Kid


Capturas:

Imagen Imagen
Imagen Imagen
Imagen Imagen
Imagen Imagen
Imagen Imagen


Enlace: ed2k link1959 Tu mano en la mía (The Five Pennies) (Melville Shavelson) WEB-DLRip 720p (Spa (Doblaje Cines 1961)-Eng-Ita-Fre-Ger) SE-I by SbR-DCINE.mkv ed2k link stats
Otras copias en la web:
DVDRip VOSE: viewtopic.php?f=1002&t=49565&hilit=the+ ... nnies+1959

Avatar de Usuario
DCINE
Mensajes: 652
Registrado: Mar 20 Dic, 2016 15:02

Re: Tu mano en la mía (Melville Shavelson, 1959) HD 720p Dual SE

Mensaje por DCINE » Vie 24 Jun, 2022 08:35

Como curiosidad, decir que en los doblajes italiano, francés y alemán, Danny Kaye se dobla a si mismo en las canciones, interpretándolas en el idioma del susodicho doblaje

Aquí una muestra.

En italiano:
En francés:
En alemán:
Última edición por DCINE el Vie 24 Jun, 2022 11:54, editado 1 vez en total.

Avatar de Usuario
ostrata
Mensajes: 2544
Registrado: Mié 24 Mar, 2010 17:29

Re: Tu mano en la mía (Melville Shavelson, 1959) HD 720p Dual SE

Mensaje por ostrata » Vie 24 Jun, 2022 10:24

Gracias. :)

Saludos.

Avatar de Usuario
mith34
Mensajes: 318
Registrado: Dom 10 Ene, 2010 13:10
Ubicación: Áqaba

Re: Tu mano en la mía (Melville Shavelson, 1959) HD 720p Dual SE

Mensaje por mith34 » Vie 24 Jun, 2022 15:25

Muchas gracias, DCINE!
DCINE escribió:
Vie 24 Jun, 2022 08:35
Español: El de su estreno en cines de 1961. De un TVRip grabado de Tele5 en los 90', encontrado en emule.
Existe una edición en DVD con doblaje, ¿usaste el TVRip por ser de mejor calidad?

Saludos.

Avatar de Usuario
marioguerola
Elegancia y sencillez
Mensajes: 74
Registrado: Lun 18 Abr, 2022 21:42

Re: Tu mano en la mía (Melville Shavelson, 1959) HD 720p Dual SE

Mensaje por marioguerola » Vie 24 Jun, 2022 15:57

:) Muchas gracias!
«Es mucho mejor dar que recibir»
(Madre Teresa de Calcuta y Mike Tyson)

Avatar de Usuario
DCINE
Mensajes: 652
Registrado: Mar 20 Dic, 2016 15:02

Re: Tu mano en la mía (Melville Shavelson, 1959) HD 720p Dual SE

Mensaje por DCINE » Vie 24 Jun, 2022 18:30

mith34 escribió:
Vie 24 Jun, 2022 15:25
DCINE escribió:
Vie 24 Jun, 2022 08:35
Español: El de su estreno en cines de 1961. De un TVRip grabado de Tele5 en los 90', encontrado en emule.
Existe una edición en DVD con doblaje, ¿usaste el TVRip por ser de mejor calidad?
Use el audio de TVRip por ser el audio mas "bruto" que hay. No se que tal es el audio del DVD, pero siendo Regia, a lo mejor parte de alguna fuente oficial o no, nunca se sabe.

Avatar de Usuario
mith34
Mensajes: 318
Registrado: Dom 10 Ene, 2010 13:10
Ubicación: Áqaba

Re: Tu mano en la mía (Melville Shavelson, 1959) HD 720p Dual SE

Mensaje por mith34 » Vie 24 Jun, 2022 20:26

DCINE escribió:
Vie 24 Jun, 2022 18:30
mith34 escribió:
Vie 24 Jun, 2022 15:25
DCINE escribió:
Vie 24 Jun, 2022 08:35
Español: El de su estreno en cines de 1961. De un TVRip grabado de Tele5 en los 90', encontrado en emule.
Existe una edición en DVD con doblaje, ¿usaste el TVRip por ser de mejor calidad?
Use el audio de TVRip por ser el audio mas "bruto" que hay. No se que tal es el audio del DVD, pero siendo Regia, a lo mejor parte de alguna fuente oficial o no, nunca se sabe.
La verdad es que siendo de Regia no creo que el audio sea muy oficial. He podido leer que al menos los subtítulos los pillaron de la red y ni siquiera se molestaron en corregir las faltas de ortografía.

Por cierto, por si a alguien le interesa el dato, la emisión de la película en Tele 5 fue el 16 de marzo de 1990.

Saludos.

Responder