The L-Shaped Room (Bryan Forbes, 1962) HD 720p Dual SE

Publica y encuentra enlaces p2p de filmes hasta 1980 en esta sección.
Responder
Avatar de Usuario
DMMD
Mensajes: 1889
Registrado: Lun 27 Feb, 2012 14:16

The L-Shaped Room (Bryan Forbes, 1962) HD 720p Dual SE

Mensaje por DMMD » Sab 16 Dic, 2017 17:58

Imagen


Imagen



La habitación en forma de L (El cuarto indiscreto)



Título original The L-Shaped Room
Año 1962
Duración 126 min.
País Imagen
Dirección Bryan Forbes
Guion Bryan Forbes (Novela: Lynne Reid Banks)
Música Muir Mathieson
Fotografía Douglas Slocombe
Reparto
Leslie Caron, Tom Bell, Bernard Lee, Brock Peters, Cicely Courtneidge, Patricia Phoenix, Emlyn Williams, Avis Bunnage, Nanette Newman, Mark Eden, Gerald Sim, Harry Locke, Anthony Booth, Verity Edmett, Ellen Dryden, Jennifer White, Gerry Duggan, Joan Ingram, Stanley Morgan, Pamela Sholto, Diane Clare, Arthur White, Bernard Lee

Productora British Lion Film Corporation / Romulus Films
Género Drama | Free Cinema
Sinopsis
Jane (Leslie Caron), una joven francesa soltera y embarazada, llega a Londres y alquila un cuarto en una sórdida casa, cuyos huéspedes son toda clase de marginados. Cuando piensa en la posibilidad de abortar, se siente muy infeliz. Mantiene una relación sentimental con Toby (Tom Bell), un joven escritor que vive en la misma casa. Con el tiempo entabla amistad con la gente de la casa, pero sigue sin resolver dos problemas: qué hacer con el niño y con Toby.

Premios
1962: Premios BAFTA: Mejor Actriz Británica (Leslie Caron). 3 nominaciones
1962: National Board of Review: Top 10 mejores películas
1963: Oscar: Nominada Mejor Actriz (Leslie Caron)
1963: Globos de Oro: Mejor actriz drama (Caron), nominada a mejor película extranjera





Vídeo:

Blu-ray (Vintage Classics) Vs Encode 72op

Imagen Imagen Imagen Imagen Imagen Imagen Imagen Imagen Imagen Imagen Imagen Imagen

Código: Seleccionar todo

General
Unique ID                                : 193636503720158498954397078123438843696 (0x91AD08B9BC7B544E9F6B4DFD8B8EA730)
Complete name                            : D:\Incoming\1962-The.L-Shaped.Room.BR.x264.720p.AAC.AC3[DMMD].mkv
Format                                   : Matroska
Format version                           : Version 4 / Version 2
File size                                : 9.63 GiB
Duration                                 : 2 h 6 min
Overall bit rate                         : 10.9 Mb/s
Movie name                               : 1962-The.L-Shaped.Room.BR.x264.720p.AAC.AC3[DMMD] 
Encoded date                             : UTC 2017-12-16 15:27:24
Writing application                      : mkvmerge v18.0.0 ('Apricity') 64-bit
Writing library                          : libebml v1.3.5 + libmatroska v1.4.8
Attachments                              : 1.jpg / 2.jpg

Video
ID                                       : 1
Format                                   : AVC
Format/Info                              : Advanced Video Codec
Format profile                           : High@L4.1
Format settings                          : CABAC / 9 Ref Frames
Format settings, CABAC                   : Yes
Format settings, RefFrames               : 9 frames
Codec ID                                 : V_MPEG4/ISO/AVC
Duration                                 : 2 h 6 min
Bit rate                                 : 10.6 Mb/s
Width                                    : 1 196 pixels
Height                                   : 720 pixels
Display aspect ratio                     : 5:3
Frame rate mode                          : Constant
Frame rate                               : 23.976 (24000/1001) FPS
Color space                              : YUV
Chroma subsampling                       : 4:2:0
Bit depth                                : 8 bits
Scan type                                : Progressive
Bits/(Pixel*Frame)                       : 0.511
Stream size                              : 9.29 GiB (97%)
Writing library                          : x264 core 152 r2851kMod ba24899
Encoding settings                        : cabac=1 / ref=9 / deblock=1:-3:-3 / analyse=0x3:0x133 / me=umh / subme=11 / psy=1 / fade_compensate=0.00 / psy_rd=1.10:0.00 / mixed_ref=1 / me_range=24 / chroma_me=1 / trellis=2 / 8x8dct=1 / cqm=0 / deadzone=21,11 / fast_pskip=0 / chroma_qp_offset=-2 / threads=6 / lookahead_threads=1 / sliced_threads=0 / nr=0 / decimate=0 / interlaced=0 / bluray_compat=0 / constrained_intra=0 / bframes=11 / b_pyramid=2 / b_adapt=2 / b_bias=0 / direct=3 / weightb=1 / open_gop=0 / weightp=2 / keyint=250 / keyint_min=23 / scenecut=40 / intra_refresh=0 / rc=crf / mbtree=0 / crf=16.6000 / qcomp=0.60 / qpmin=0 / qpmax=69 / qpstep=4 / ip_ratio=1.30 / pb_ratio=1.20 / aq=3:0.55
Language                                 : English
Default                                  : Yes
Forced                                   : No

Audio #1
ID                                       : 2
Format                                   : AAC
Format/Info                              : Advanced Audio Codec
Format profile                           : LC
Codec ID                                 : A_AAC-2
Duration                                 : 2 h 6 min
Bit rate                                 : 171 kb/s
Channel(s)                               : 2 channels
Channel positions                        : Front: L R
Sampling rate                            : 48.0 kHz
Frame rate                               : 46.875 FPS (1024 SPF)
Compression mode                         : Lossy
Delay relative to video                  : 9 ms
Stream size                              : 154 MiB (2%)
Language                                 : English
Default                                  : Yes
Forced                                   : No

Audio #2
ID                                       : 3
Format                                   : AC-3
Format/Info                              : Audio Coding 3
Codec ID                                 : A_AC3
Duration                                 : 2 h 6 min
Bit rate mode                            : Constant
Bit rate                                 : 192 kb/s
Channel(s)                               : 2 channels
Channel positions                        : Front: L R
Sampling rate                            : 48.0 kHz
Frame rate                               : 31.250 FPS (1536 SPF)
Bit depth                                : 16 bits
Compression mode                         : Lossy
Stream size                              : 173 MiB (2%)
Language                                 : Spanish
Service kind                             : Complete Main
Default                                  : No
Forced                                   : No

Text #1
ID                                       : 4
Format                                   : UTF-8
Codec ID                                 : S_TEXT/UTF8
Codec ID/Info                            : UTF-8 Plain Text
Duration                                 : 2 h 3 min
Bit rate                                 : 54 b/s
Count of elements                        : 1362
Stream size                              : 49.7 KiB (0%)
Language                                 : Spanish
Default                                  : Yes
Forced                                   : No

Text #2
ID                                       : 5
Format                                   : UTF-8
Codec ID                                 : S_TEXT/UTF8
Codec ID/Info                            : UTF-8 Plain Text
Duration                                 : 1 h 49 min
Bit rate                                 : 1 b/s
Count of elements                        : 32
Stream size                              : 1.10 KiB (0%)
Title                                    : Forzados
Language                                 : Spanish
Default                                  : No
Forced                                   : No

Text #3
ID                                       : 6
Format                                   : UTF-8
Codec ID                                 : S_TEXT/UTF8
Codec ID/Info                            : UTF-8 Plain Text
Duration                                 : 2 h 1 min
Bit rate                                 : 70 b/s
Count of elements                        : 1793
Stream size                              : 62.9 KiB (0%)
Language                                 : English
Default                                  : No
Forced                                   : No

Text #4
ID                                       : 7
Format                                   : PGS
Muxing mode                              : zlib
Codec ID                                 : S_HDMV/PGS
Codec ID/Info                            : Picture based subtitle format used on BDs/HD-DVDs
Duration                                 : 2 h 1 min
Bit rate                                 : 39.2 kb/s
Count of elements                        : 3586
Stream size                              : 34.1 MiB (0%)
Title                                    : Bluray
Language                                 : English
Default                                  : No
Forced                                   : No

Menu
00:00:00.000                             : en:00:00:00.000
00:10:31.172                             : en:00:10:31.172
00:20:41.073                             : en:00:20:41.073
00:31:04.571                             : en:00:31:04.571
00:42:33.718                             : en:00:42:33.718
00:53:38.173                             : en:00:53:38.173
01:03:18.795                             : en:01:03:18.795
01:11:17.982                             : en:01:11:17.982
01:23:12.321                             : en:01:23:12.321
01:34:02.345                             : en:01:34:02.345
01:44:14.832                             : en:01:44:14.832
01:55:21.331                             : en:01:55:21.331

Encode 720p Vs Dvd Optimum Releasing (Pal)

Imagen
Imagen

Audio y sub:

- Para la V.O. audio AAC, pasado del Blu-ray. (LPCM Audio)

- Para la sincro, audio extraído de un Dvdrip dual que circula por la mula, imagino que será el mismo que compartió jorobado7 de la emisión de Telemadrid y sincronizo heinlein. (Mil gracias :wink: )

FichaPelicula, eldoblaje.com


- Para los sub en castellano los proporcionados por Felipemarlou y compartidos por hammett (Mil gracias a ambos :wink: )

- He incluido también los sub propios del bluray.



Imagen



CAPTURAS

Imagen
Imagen
Imagen
Imagen
Imagen
Imagen
Imagen
Imagen
Imagen


Enlaces de descarga

Imagen


ed2k link1962-The.L-Shaped.Room.BR.x264.720p.AAC.AC3(DMMD).mkv ed2k link stats

Avatar de Usuario
Spanish Jhonny
Mensajes: 3352
Registrado: Mar 18 Sep, 2012 16:01

Re: The L-Shaped Room (Bryan Forbes, 1962) HD 720p Dual SE

Mensaje por Spanish Jhonny » Sab 16 Dic, 2017 20:31

Ya está pinchada
Muchas gracias DMMD por esta completa desconocida
Un saludo

ostrata
Mensajes: 2514
Registrado: Mié 24 Mar, 2010 17:29

Re: The L-Shaped Room (Bryan Forbes, 1962) HD 720p Dual SE

Mensaje por ostrata » Sab 16 Dic, 2017 21:45

Gracias. :)

Saludos.

Avatar de Usuario
Brateh
Amante del Cine
Mensajes: 431
Registrado: Sab 31 Jul, 2010 05:37
Ubicación: Argentina

Re: The L-Shaped Room (Bryan Forbes, 1962) HD 720p Dual SE

Mensaje por Brateh » Sab 16 Dic, 2017 21:48

Pinchada... ¡Muchas gracias DMMD!
:plas: :plas: :plas:
Alta Definición es una necesidad... Bienvenida sea!!

Avatar de Usuario
paizoco
Mensajes: 2886
Registrado: Vie 21 Nov, 2003 01:00
Ubicación: Far West

Re: The L-Shaped Room (Bryan Forbes, 1962) HD 720p Dual SE

Mensaje por paizoco » Sab 16 Dic, 2017 22:29

Me apunto, muchas gracias.

joramor
Mensajes: 1836
Registrado: Vie 05 Nov, 2010 19:55

Re: The L-Shaped Room (Bryan Forbes, 1962) HD 720p Dual SE

Mensaje por joramor » Sab 16 Dic, 2017 22:57

Muchas gracias DMMD. Salu2.

Avatar de Usuario
loga
Mensajes: 580
Registrado: Jue 09 Ago, 2012 13:54

Re: The L-Shaped Room (Bryan Forbes, 1962) HD 720p Dual SE

Mensaje por loga » Dom 17 Dic, 2017 00:17

Pintaza.
Muchas gracias DMMD.

Avatar de Usuario
elmajete
Mensajes: 1035
Registrado: Vie 18 May, 2007 22:05

Re: The L-Shaped Room (Bryan Forbes, 1962) HD 720p Dual SE

Mensaje por elmajete » Lun 18 Dic, 2017 11:03

Muchas gracias DMMD :plas: :plas: :plas:

Avatar de Usuario
kabe
Mensajes: 146
Registrado: Dom 28 Feb, 2016 17:27

Re: The L-Shaped Room (Bryan Forbes, 1962) HD 720p Dual SE

Mensaje por kabe » Dom 22 May, 2022 02:28

¡Muchas gracias!

Responder