Paris - When It Sizzles (Richard Quine, 1964) HD 1080p Dual SE

Publica y encuentra enlaces p2p de filmes hasta 1980 en esta sección.
Responder
Avatar de Usuario
castleaco
Mensajes: 278
Registrado: Vie 18 Abr, 2014 10:14

Paris - When It Sizzles (Richard Quine, 1964) HD 1080p Dual SE

Mensaje por castleaco » Jue 19 May, 2022 07:58

Encuentro en París

Richard Quine, 1964


Imagen

Imagen

Título original
Paris - When It Sizzles
Año
1964
Duración
110 min.
País
Imagen
Dirección
Richard Quine
Guion
George Axelrod, Henri Jeanson, Julien Duvivier
Música
Nelson Riddle
Fotografía
Charles Lang
Reparto
William Holden, Audrey Hepburn, Noël Coward, Grégoire Aslan, Marlene Dietrich, Fred Astaire, Tony Curtis, Mel Ferrer, Raymond Bussières, Christian Duvallex, Thomas Michel, Dominique Boschero, Evi Marandi
Productora
Paramount Pictures
Género
Comedia. Romance | Comedia romántica. Remake
Sinopsis
Un productor de Hollywood encarga al escritor Richard Benson (William Holden) el guión de su última película. Benson se instala en un apartamento de París, pero, en vez de escribir, se dedica a la buena vida. Cuando se da cuenta de que sólo le quedan dos días para acabar el trabajo, contrata a Gabrielle (Audrey Hepburn) como secretaria para poder cumplir el encargo. (FILMAFFINITY)

Imagen

Código: Seleccionar todo

General
Complete name                  : Paris - When It Sizzles.(1964).Encuentro en París.1080p.x264.aac.eng.mp3.spa.castleaco.mkv
Format                         : Matroska
Format version                 : Version 4
File size                      : 15.3 GiB
Duration                       : 1 h 50 min
Overall bit rate               : 19.8 Mb/s
Encoded date                   : UTC 2022-05-18 11:37:21
Writing application            : mkvmerge v62.0.0 ('Apollo') 64-bit
Writing library                : libebml v1.4.2 + libmatroska v1.6.4

Video
ID                             : 1
Format                         : AVC
Format/Info                    : Advanced Video Codec
Format profile                 : Main@L4
Format settings                : CABAC / 4 Ref Frames
Format settings, CABAC         : Yes
Format settings, Reference fra : 4 frames
Codec ID                       : V_MPEG4/ISO/AVC
Duration                       : 1 h 50 min
Bit rate                       : 19.4 Mb/s
Width                          : 1 920 pixels
Height                         : 1 080 pixels
Display aspect ratio           : 16:9
Frame rate mode                : Constant
Frame rate                     : 23.976 (24000/1001) FPS
Color space                    : YUV
Chroma subsampling             : 4:2:0
Bit depth                      : 8 bits
Scan type                      : Progressive
Bits/(Pixel*Frame)             : 0.390
Stream size                    : 15.0 GiB (98%)
Writing library                : x264 core 152 r2854 e9a5903
Encoding settings              : cabac=1 / ref=4 / deblock=1:0:0 / analyse=0x1:0x131 / me=tesa / subme=11 / psy=1 / psy_rd=1,00:0,00 / mixed_ref=1 / me_range=24 / chroma_me=1 / trellis=2 / 8x8dct=0 / cqm=0 / deadzone=21,11 / fast_pskip=0 / chroma_qp_offset=-2 / threads=12 / lookahead_threads=3 / sliced_threads=0 / nr=0 / decimate=1 / interlaced=0 / bluray_compat=0 / constrained_intra=0 / bframes=16 / b_pyramid=2 / b_adapt=2 / b_bias=0 / direct=3 / weightb=1 / open_gop=0 / weightp=2 / keyint=240 / keyint_min=24 / scenecut=40 / intra_refresh=0 / rc_lookahead=60 / rc=crf / mbtree=1 / crf=17,0 / qcomp=0,60 / qpmin=0 / qpmax=69 / qpstep=4 / vbv_maxrate=20000 / vbv_bufsize=25000 / crf_max=0,0 / nal_hrd=none / filler=0 / ip_ratio=1,40 / aq=1:1,00
Language                       : English
Default                        : Yes
Forced                         : No
Color range                    : Limited
Color primaries                : BT.709
Transfer characteristics       : BT.709
Matrix coefficients            : BT.709

Audio #1
ID                             : 2
Format                         : AAC LC
Format/Info                    : Advanced Audio Codec Low Complexity
Codec ID                       : A_AAC-2
Duration                       : 1 h 50 min
Bit rate                       : 192 kb/s
Channel(s)                     : 2 channels
Channel layout                 : L R
Sampling rate                  : 48.0 kHz
Frame rate                     : 46.875 FPS (1024 SPF)
Compression mode               : Lossy
Delay relative to video        : -21 ms
Stream size                    : 152 MiB (1%)
Title                          : Stereo
Language                       : English
Default                        : No
Forced                         : No

Audio #2
ID                             : 3
Format                         : MPEG Audio
Format version                 : Version 1
Format profile                 : Layer 3
Format settings                : Joint stereo / MS Stereo
Codec ID                       : A_MPEG/L3
Codec ID/Hint                  : MP3
Duration                       : 1 h 50 min
Bit rate mode                  : Constant
Bit rate                       : 128 kb/s
Channel(s)                     : 2 channels
Sampling rate                  : 48.0 kHz
Frame rate                     : 41.667 FPS (1152 SPF)
Compression mode               : Lossy
Delay relative to video        : -21 ms
Stream size                    : 101 MiB (1%)
Title                          : Doblaje castellano
Writing library                : LAME3.100
Encoding settings              : -m j -V 4 -q 3 -lowpass 17 -b 128
Language                       : Spanish
Default                        : Yes
Forced                         : Yes

Text #1
ID                             : 4
Format                         : UTF-8
Codec ID                       : S_TEXT/UTF8
Codec ID/Info                  : UTF-8 Plain Text
Duration                       : 1 h 46 min
Bit rate                       : 0 b/s
Count of elements              : 25
Stream size                    : 695 Bytes (0%)
Title                          : Castellano forzados
Language                       : Spanish
Default                        : Yes
Forced                         : Yes

Text #2
ID                             : 5
Format                         : UTF-8
Codec ID                       : S_TEXT/UTF8
Codec ID/Info                  : UTF-8 Plain Text
Duration                       : 1 h 49 min
Bit rate                       : 61 b/s
Count of elements              : 1325
Stream size                    : 48.8 KiB (0%)
Title                          : Castellano completos
Language                       : Spanish
Default                        : Yes
Forced                         : No

Text #3
ID                             : 6
Format                         : PGS
Muxing mode                    : zlib
Codec ID                       : S_HDMV/PGS
Codec ID/Info                  : Picture based subtitle format used on BDs/HD-DVDs
Duration                       : 1 h 49 min
Bit rate                       : 42.4 kb/s
Count of elements              : 2684
Stream size                    : 33.2 MiB (0%)
Title                          : Español américa
Language                       : Spanish
Default                        : No
Forced                         : No

Text #4
ID                             : 7
Format                         : PGS
Muxing mode                    : zlib
Codec ID                       : S_HDMV/PGS
Codec ID/Info                  : Picture based subtitle format used on BDs/HD-DVDs
Duration                       : 1 h 49 min
Bit rate                       : 46.3 kb/s
Count of elements              : 2924
Stream size                    : 36.1 MiB (0%)
Language                       : English
Default                        : No
Forced                         : No

Text #5
ID                             : 8
Format                         : PGS
Muxing mode                    : zlib
Codec ID                       : S_HDMV/PGS
Codec ID/Info                  : Picture based subtitle format used on BDs/HD-DVDs
Duration                       : 1 h 49 min
Bit rate                       : 39.3 kb/s
Count of elements              : 2640
Stream size                    : 30.8 MiB (0%)
Language                       : French
Default                        : No
Forced                         : No

Text #6
ID                             : 9
Format                         : PGS
Muxing mode                    : zlib
Codec ID                       : S_HDMV/PGS
Codec ID/Info                  : Picture based subtitle format used on BDs/HD-DVDs
Duration                       : 1 h 49 min
Bit rate                       : 42.4 kb/s
Count of elements              : 2642
Stream size                    : 33.2 MiB (0%)
Language                       : German
Default                        : No
Forced                         : No

Text #7
ID                             : 10
Format                         : PGS
Muxing mode                    : zlib
Codec ID                       : S_HDMV/PGS
Codec ID/Info                  : Picture based subtitle format used on BDs/HD-DVDs
Duration                       : 1 h 49 min
Bit rate                       : 29.0 kb/s
Count of elements              : 2398
Stream size                    : 22.6 MiB (0%)
Language                       : Japanese
Default                        : No
Forced                         : No

Menu
00:00:00.000                   : :An Alexander Meyerheim Production
00:05:36.461                   : :Boy Meets Girl
00:11:28.646                   : :Deadline
00:18:22.101                   : :An Idea
00:23:02.631                   : :Conflict
00:29:51.456                   : :A Liar And A Thief
00:35:04.352                   : :Lunch
00:43:25.770                   : :The Switch
00:49:51.780                   : :Continuity
00:54:18.672                   : :Revisions
00:59:42.662                   : :The Plot
01:05:03.191                   : :Inside The Studio Gates
01:11:13.603                   : :Switches on Switches
01:19:26.011                   : :Party Scene
01:29:33.201                   : :Getaway
01:36:41.087                   : :The End
01:42:32.396                   : :Boy Gets Girl



Capturas:
Imagen
Imagen
Imagen
Imagen
Imagen
Imagen


Es un ripeo encontrado en torrent procedente del blu-ray (Gracias). El audio en español lo he tomado prestado de la copia que se compartió en este foro obra de Merxe para proteinicos (muchas gracias)... Ha necesitado de adaptación a 23976 fps y varios reajustes de sincronización a lo largo de la película.

El torrent ya partía con subtítulos en español y he añadido otros subtítulos de subdivx (versionados a partir de los de shoocat. Muchas gracias) que he corregido en varios puntos por problemas OCR o de palabras que se juntaban. No descarto que queden algunos errores todavía. A partir de ellos he creado unos subtítulos forzados para cuando se use la pista de doblaje. Contiene subtítulos en otros idiomas.

ed2k linkParis - When It Sizzles.(1964).Encuentro en París.1080p.x264.aac.eng.mp3.spa.castleaco ed2k link stats (15.3GB)

Anteriormente en Divxclasico:
viewtopic.php?f=1002&t=34743&hilit=Encu ... Par%C3%ADs

Avatar de Usuario
eulsus
Mensajes: 2060
Registrado: Vie 18 May, 2007 10:41
Ubicación: La Palma

Re: Paris - When It Sizzles (Richard Quine, 1964) HD 1080p Dual SE

Mensaje por eulsus » Jue 19 May, 2022 11:18

:plas: :plas: :plas:, castleaco.
Imagen
Antonio García-Trevijano Forte (1927-2018)
"Para que yo sea libre, todos tienen que ser libres"

Abstención activa hasta que haya Libertad Colectiva

Avatar de Usuario
Satori
Mensajes: 49
Registrado: Jue 31 Mar, 2022 16:16

Re: Paris - When It Sizzles (Richard Quine, 1964) HD 1080p Dual SE

Mensaje por Satori » Jue 19 May, 2022 13:09

Que buena pinta tiene!!

Pinchando...

Avatar de Usuario
Dardo
Arrow Thrower Clown
Mensajes: 17364
Registrado: Dom 19 Oct, 2003 02:00
Ubicación: Entre Encinas y Dolomías

Re: Paris - When It Sizzles (Richard Quine, 1964) HD 1080p Dual SE

Mensaje por Dardo » Jue 19 May, 2022 16:26

Homenaje a nuestra querida Mercedes y nuestro hombre de oriente Xuguang!!! :mrgreen:

Estás que te sales castleaco!!!

Avatar de Usuario
castleaco
Mensajes: 278
Registrado: Vie 18 Abr, 2014 10:14

Re: Paris - When It Sizzles (Richard Quine, 1964) HD 1080p Dual SE

Mensaje por castleaco » Jue 19 May, 2022 23:14

Me están llegando muchas peticiones de otro trabajo que publiqué hace poco, helena de Troya. Supongo que lo habrán publicado en algún otro sitio web, así que paciencia que está la mulita que echa humo.

Avatar de Usuario
davinci1405
Mensajes: 612
Registrado: Mié 09 Dic, 2009 01:11

Re: Paris - When It Sizzles (Richard Quine, 1964) HD 1080p Dual SE

Mensaje por davinci1405 » Vie 20 May, 2022 00:49

Muchas gracias, castleaco.
"Sólo dos cosas son infinitas, el universo y la estupidez humana... y no estoy seguro de lo primero". Albert Einstein

Avatar de Usuario
kiffer
Mensajes: 44
Registrado: Lun 08 Ago, 2011 18:53

Re: Paris - When It Sizzles (Richard Quine, 1964) HD 1080p Dual SE

Mensaje por kiffer » Sab 21 May, 2022 16:21

Muchas gracias. Solo por ver a Audrey Hepburn y a Willliam Holden, porque la película es un auténtico puro.

Avatar de Usuario
mith34
Mensajes: 291
Registrado: Dom 10 Ene, 2010 13:10
Ubicación: Áqaba

Re: Paris - When It Sizzles (Richard Quine, 1964) HD 1080p Dual SE

Mensaje por mith34 » Vie 27 May, 2022 14:28

Muchas gracias, castleaco! :plas: :plas:

Responder