The Red Shoes (Michael Powell, Emeric Pressburger, 1948) UHD 1080p Dual SE

Publica y encuentra enlaces p2p de filmes hasta 1980 en esta sección.
Responder
Avatar de Usuario
DMMD
Mensajes: 1885
Registrado: Lun 27 Feb, 2012 14:16

The Red Shoes (Michael Powell, Emeric Pressburger, 1948) UHD 1080p Dual SE

Mensaje por DMMD » Sab 22 Ene, 2022 18:51

Imagen


Imagen


Las zapatillas rojas

Título original The Red Shoes
Año 1948
Duración 133 min.
País Imagen
Dirección Michael Powell, Emeric Pressburger
Guion Emeric Pressburger
Música Brian Easdale
Fotografía Jack Cardiff
Reparto
Anton Walbrook, Moira Shearer, Marius Goring, Leonid Massine, Albert Basserman, Robert Helpmann, Ludmilla Tcherina, Esmond Knight

Productora Independent Producers
Género Drama. Romance | Ballet. Melodrama
Sinopsis
Victoria Page (Moira Shearer) es una joven bailarina aficionada que, en la fiesta de estreno de un ballet de la compañía Lermontov, dirigida por el implacable Boris Lermontov (Anton Walbrook), es introducida por su influyente tía y obtiene una oportunidad para demostrar su valía, empezando por los teatros más modestos de Londres. Al mismo tiempo Julian Craster (Marius Goring) es un joven estudiante de composición, a quien su profesor ha robado su trabajo, haciéndolo pasar como original para los ballets de Lermontov. Se presentará ante éste y encontrará también la oportunidad para demostrar su valía. En un momento dado, el destino de ambos jóvenes confluyen. A Craster se le encomienda la composición de la música de un nuevo ballet basado en el cuento "Las zapatillas rojas", de Hans Christian Andersen. A Page, la retirada de la anterior prima ballerina por matrimonio, le ofrece la oportunidad de bailar el papel principal en el nuevo ballet. También será la ocasión para que ambos jóvenes se encuentren, se conozcan y se enamoren. Y para que se pongan los cimientos para el drama que evolucionará en paralelo al cuento de Andersen. (FILMAFFINITY)



Imagen


Vídeo:

Comparativa sin mapear

- Encode x265 a partir de la edición del Bluray Criterion (4K Ultra HD)

Imagen Imagen Imagen Imagen Imagen Imagen Imagen Imagen Imagen Imagen Imagen Imagen Imagen Imagen


Imagen



UHD 1080p VS Bluray Criterion (2010)

Imagen
Imagen

Imagen


Código: Seleccionar todo

General
Unique ID                                : 78552594498185183297610034833965587226 (0x3B18ADECDA4E69580EA8D27F8B861B1A)
Complete name                            : D:\Incoming\1948-The.Red.Shoes.UHD.BluRayx265.1080p.AAC.AC3.(DMMD).mkv
Format                                   : Matroska
Format version                           : Version 4
File size                                : 12.8 GiB
Duration                                 : 2 h 15 min
Overall bit rate                         : 13.5 Mb/s
Movie name                               : 1948-The.Red.Shoes.UHD.BluRayx265.1080p.AAC.AC3.(DMMD)
Encoded date                             : UTC 2022-01-08 18:25:43
Writing application                      : mkvmerge v63.0.0 ('Everything') 64-bit
Writing library                          : libebml v1.4.2 + libmatroska v1.6.4
Attachments                              : 1 / 2 / 3 / 4 / 5 / 6

Video
ID                                       : 1
Format                                   : HEVC
Format/Info                              : High Efficiency Video Coding
Format profile                           : Main 10@L5.1@Main
HDR format                               : SMPTE ST 2086, HDR10 compatible
Codec ID                                 : V_MPEGH/ISO/HEVC
Duration                                 : 2 h 15 min
Bit rate                                 : 13.2 Mb/s
Width                                    : 1 920 pixels
Height                                   : 1 400 pixels
Display aspect ratio                     : 1.371
Frame rate mode                          : Constant
Frame rate                               : 23.976 (24000/1001) FPS
Color space                              : YUV
Chroma subsampling                       : 4:2:0 (Type 1)
Bit depth                                : 10 bits
Bits/(Pixel*Frame)                       : 0.205
Stream size                              : 12.5 GiB (98%)
Title                                    : Criterion 4K Ultra HD
Writing library                          : x265 3.5+9+14-6c69ed37d:[Windows][GCC 10.2.0][64 bit] 10bit
Encoding settings                        : cpuid=1111039 / frame-threads=4 / numa-pools=24 / wpp / no-pmode / no-pme / no-psnr / no-ssim / log-level=2 / input-csp=1 / input-res=1920x1400 / interlace=0 / total-frames=194904 / level-idc=51 / high-tier=1 / uhd-bd=0 / ref=6 / no-allow-non-conformance / repeat-headers / annexb / aud / hrd / info / hash=0 / no-temporal-layers / open-gop / min-keyint=23 / keyint=250 / gop-lookahead=0 / bframes=16 / b-adapt=2 / b-pyramid / bframe-bias=0 / rc-lookahead=60 / lookahead-slices=0 / scenecut=40 / hist-scenecut=0 / radl=0 / no-splice / no-intra-refresh / ctu=64 / min-cu-size=8 / no-rect / no-amp / max-tu-size=32 / tu-inter-depth=4 / tu-intra-depth=4 / limit-tu=0 / rdoq-level=2 / dynamic-rd=0.00 / no-ssim-rd / signhide / no-tskip / nr-intra=0 / nr-inter=0 / no-constrained-intra / strong-intra-smoothing / max-merge=5 / limit-refs=0 / no-limit-modes / me=3 / subme=7 / merange=57 / temporal-mvp / no-frame-dup / no-hme / weightp / weightb / no-analyze-src-pics / deblock=-3:-3 / no-sao / no-sao-non-deblock / rd=3 / selective-sao=0 / no-early-skip / rskip / no-fast-intra / no-tskip-fast / no-cu-lossless / b-intra / no-splitrd-skip / rdpenalty=0 / psy-rd=2.00 / psy-rdoq=2.00 / no-rd-refine / no-lossless / cbqpoffs=0 / crqpoffs=0 / rc=crf / crf=18.0 / qcomp=0.67 / qpstep=4 / stats-write=0 / stats-read=0 / vbv-maxrate=16000 / vbv-bufsize=16000 / vbv-init=0.9 / min-vbv-fullness=50.0 / max-vbv-fullness=80.0 / crf-max=0.0 / crf-min=0.0 / ipratio=1.30 / pbratio=1.15 / aq-mode=1 / aq-strength=0.81 / no-cutree / zone-count=0 / no-strict-cbr / qg-size=8 / no-rc-grain / qpmax=69 / qpmin=0 / no-const-vbv / sar=0 / overscan=0 / videoformat=5 / range=0 / colorprim=9 / transfer=16 / colormatrix=9 / chromaloc=1 / chromaloc-top=1 / chromaloc-bottom=1 / display-window=0 / master-display=G(8500,39850)B(6550,2300)R(35400,14600)WP(15635,16450)L(10000000,1) / cll=1000,92 / min-luma=0 / max-luma=1023 / log2-max-poc-lsb=8 / vui-timing-info / vui-hrd-info / slices=1 / no-opt-qp-pps / no-opt-ref-list-length-pps / no-multi-pass-opt-rps / scenecut-bias=0.05 / hist-threshold=0.01 / no-opt-cu-delta-qp / no-aq-motion / hdr10 / hdr10-opt / no-dhdr10-opt / no-idr-recovery-sei / analysis-reuse-level=0 / analysis-save-reuse-level=0 / analysis-load-reuse-level=0 / scale-factor=0 / refine-intra=0 / refine-inter=0 / refine-mv=1 / refine-ctu-distortion=0 / no-limit-sao / ctu-info=0 / no-lowpass-dct / refine-analysis-type=0 / copy-pic=1 / max-ausize-factor=1.0 / no-dynamic-refine / no-single-sei / no-hevc-aq / no-svt / no-field / qp-adaptation-range=1.00 / scenecut-aware-qp=0conformance-window-offsets / right=0 / bottom=0 / decoder-max-rate=0 / no-vbv-live-multi-pass
Default                                  : Yes
Forced                                   : No
Color range                              : Limited
Color primaries                          : BT.2020
Transfer characteristics                 : PQ
Matrix coefficients                      : BT.2020 non-constant
Mastering display color primaries        : BT.2020
Mastering display luminance              : min: 0.0001 cd/m2, max: 1000 cd/m2
Maximum Content Light Level              : 1000 cd/m2
Maximum Frame-Average Light Level        : 92 cd/m2

Audio #1
ID                                       : 2
Format                                   : AAC LC
Format/Info                              : Advanced Audio Codec Low Complexity
Codec ID                                 : A_AAC-2
Duration                                 : 2 h 15 min
Bit rate                                 : 103 kb/s
Channel(s)                               : 1 channel
Channel layout                           : C
Sampling rate                            : 48.0 kHz
Frame rate                               : 46.875 FPS (1024 SPF)
Compression mode                         : Lossy
Delay relative to video                  : 9 ms
Stream size                              : 100 MiB (1%)
Language                                 : English
Default                                  : Yes
Forced                                   : No

Audio #2
ID                                       : 3
Format                                   : AC-3
Format/Info                              : Audio Coding 3
Commercial name                          : Dolby Digital
Codec ID                                 : A_AC3
Duration                                 : 2 h 14 min
Bit rate mode                            : Constant
Bit rate                                 : 192 kb/s
Channel(s)                               : 2 channels
Channel layout                           : L R
Sampling rate                            : 48.0 kHz
Frame rate                               : 31.250 FPS (1536 SPF)
Compression mode                         : Lossy
Stream size                              : 185 MiB (1%)
Language                                 : Spanish
Service kind                             : Complete Main
Default                                  : No
Forced                                   : No

Text #1
ID                                       : 4
Format                                   : UTF-8
Codec ID                                 : S_TEXT/UTF8
Codec ID/Info                            : UTF-8 Plain Text
Duration                                 : 2 h 12 min
Bit rate                                 : 36 b/s
Count of elements                        : 1112
Stream size                              : 35.5 KiB (0%)
Language                                 : Spanish
Default                                  : No
Forced                                   : No

Text #2
ID                                       : 5
Format                                   : UTF-8
Codec ID                                 : S_TEXT/UTF8
Codec ID/Info                            : UTF-8 Plain Text
Duration                                 : 2 h 1 min
Bit rate                                 : 0 b/s
Count of elements                        : 10
Stream size                              : 333 Bytes (0%)
Title                                    : Forzados
Language                                 : Spanish
Default                                  : No
Forced                                   : No

Text #3
ID                                       : 6
Format                                   : UTF-8
Codec ID                                 : S_TEXT/UTF8
Codec ID/Info                            : UTF-8 Plain Text
Duration                                 : 2 h 8 min
Bit rate                                 : 45 b/s
Count of elements                        : 1166
Stream size                              : 42.9 KiB (0%)
Language                                 : English
Default                                  : No
Forced                                   : No

Text #4
ID                                       : 7
Format                                   : UTF-8
Codec ID                                 : S_TEXT/UTF8
Codec ID/Info                            : UTF-8 Plain Text
Duration                                 : 2 h 9 min
Bit rate                                 : 49 b/s
Count of elements                        : 1323
Stream size                              : 47.1 KiB (0%)
Title                                    : SDH
Language                                 : English
Default                                  : No
Forced                                   : No

Text #5
ID                                       : 8
Format                                   : PGS
Muxing mode                              : zlib
Codec ID                                 : S_HDMV/PGS
Codec ID/Info                            : Picture based subtitle format used on BDs/HD-DVDs
Duration                                 : 2 h 9 min
Bit rate                                 : 41.8 kb/s
Count of elements                        : 2646
Stream size                              : 38.6 MiB (0%)
Language                                 : English
Default                                  : No
Forced                                   : No

Menu
00:00:00.000                             : :Opening credits
00:03:40.137                             : :Musicians and balletomanes
00:07:25.779                             : :Heart of Fire
00:12:11.898                             : :Lady Neston's party
00:16:35.328                             : :"A matter of very great importance"
00:20:39.780                             : :Covent Garden, backstage
00:28:05.225                             : :Natural ambitions
00:33:18.079                             : :The Mercury Theatre
00:36:37.112                             : :Paris
00:39:06.886                             : :The story of "The Red Shoes"
00:42:12.989                             : :Irina is finished
00:45:06.245                             : :An invitation
00:50:46.835                             : :Julian scores
00:54:39.693                             : :"Nothing but the music"
01:02:03.386                             : :The Red Shoes ballet
01:22:59.600                             : :"You will do the dancing"
01:28:19.211                             : :The great roles
01:32:10.734                             : :Grischa's birthday party
01:39:09.735                             : :Departures
01:47:41.622                             : :Lermontov's reflection
01:55:39.141                             : :Sleepless nights
02:00:10.203                             : :"Dance for us again"
02:02:56.494                             : :The struggle for Vicky
02:08:28.451                             : :Vicky's last dance
02:13:10.733                             : :End credits




REVIEW

Imagen


Imagen Imagen Imagen Imagen Imagen Imagen Imagen Imagen Imagen


Imagen



Audio y subtitulos:

- Para la V.O. audio AAC ( LPCM Mono (48kHz, 24-bit)) y sub extraídos igualmente desde el UHD.

- Para la sincro del doblaje y subtitulos, los compartidos en anteriores aportes, gracias. :plas:




CAPTURAS

Imagen
Imagen
Imagen
Imagen
Imagen
Imagen
Imagen
Imagen
Imagen
Imagen
Imagen
Imagen
Imagen
Imagen


Enlaces de descarga

Imagen

ed2k link1948-The.Red.Shoes.UHD.BluRayx265.1080p.AAC.AC3.(DMMD).mkv ed2k link stats

Imagen

joramor
Mensajes: 1825
Registrado: Vie 05 Nov, 2010 19:55

Re: The Red Shoes (Michael Powell, Emeric Pressburger, 1948) UHD 1080p Dual SE

Mensaje por joramor » Sab 22 Ene, 2022 19:06

Muchas gracias DMMD. Salu2.

Avatar de Usuario
juannavarrete
Mensajes: 1746
Registrado: Dom 14 Feb, 2010 04:27

Re: The Red Shoes (Michael Powell, Emeric Pressburger, 1948) UHD 1080p Dual SE

Mensaje por juannavarrete » Sab 22 Ene, 2022 20:01

Gracias DMMD.
Un abrazo.
Es necesario para su distribución, dejar las descargas obtenidas en el incoming.
(Lo que es bueno para uno, es bueno para todos)

Avatar de Usuario
MILLER
Mensajes: 464
Registrado: Sab 01 Oct, 2005 02:00
Ubicación: Delante del ordenador

Re: The Red Shoes (Michael Powell, Emeric Pressburger, 1948) UHD 1080p Dual SE

Mensaje por MILLER » Sab 22 Ene, 2022 21:03

Vamos a por ella. ¡Viva el UHD!

Gracias

Avatar de Usuario
paizoco
Mensajes: 2882
Registrado: Vie 21 Nov, 2003 01:00
Ubicación: Far West

Re: The Red Shoes (Michael Powell, Emeric Pressburger, 1948) UHD 1080p Dual SE

Mensaje por paizoco » Dom 23 Ene, 2022 01:05

Me apunto, muchas gracias.

Avatar de Usuario
Kaput795
Mensajes: 119
Registrado: Mié 08 Abr, 2015 14:35

Re: The Red Shoes (Michael Powell, Emeric Pressburger, 1948) UHD 1080p Dual SE

Mensaje por Kaput795 » Dom 23 Ene, 2022 13:45

¡Qué lujazo de edición! Muchas gracias DMMD. Es reconfortante ver fuentes UHD que no abusan de trampantojos digitales, algo que desgraciadamente se da a menudo (al menos en mi experiencia). Un saludo :)

ostrata
Mensajes: 2491
Registrado: Mié 24 Mar, 2010 17:29

Re: The Red Shoes (Michael Powell, Emeric Pressburger, 1948) UHD 1080p Dual SE

Mensaje por ostrata » Dom 23 Ene, 2022 15:20

Genial, gracias. :)

Saludos.

Avatar de Usuario
Dardo
Arrow Thrower Clown
Mensajes: 17285
Registrado: Dom 19 Oct, 2003 02:00
Ubicación: Entre Encinas y Dolomías

Re: The Red Shoes (Michael Powell, Emeric Pressburger, 1948) UHD 1080p Dual SE

Mensaje por Dardo » Dom 23 Ene, 2022 18:53

Trabajo guapo!!!! :yes: :yes:

Que no pare el ritmo. :plas: :plas:

A ver si el próximo fin de semana empiezo la producción del 2022 :mrgreen:

Avatar de Usuario
Spanish Jhonny
Mensajes: 3327
Registrado: Mar 18 Sep, 2012 16:01

Re: The Red Shoes (Michael Powell, Emeric Pressburger, 1948) UHD 1080p Dual SE

Mensaje por Spanish Jhonny » Dom 23 Ene, 2022 21:05

Fantástico trabajo DMMD.
Muchas gracias :plas: :plas: :plas:

Avatar de Usuario
Forrest Gump
Mensajes: 1679
Registrado: Vie 18 May, 2007 18:06
Ubicación: Zihuatanejo

Re: The Red Shoes (Michael Powell, Emeric Pressburger, 1948) UHD 1080p Dual SE

Mensaje por Forrest Gump » Lun 24 Ene, 2022 02:02

Vaya estupendo upgrade para una de las grandes películas de la historia. ¡Un lujazo, DMMD! :plas: :plas: :plas:
Made it, Ma, top of the world!

Avatar de Usuario
mith34
Mensajes: 273
Registrado: Dom 10 Ene, 2010 13:10
Ubicación: Áqaba

Re: The Red Shoes (Michael Powell, Emeric Pressburger, 1948) UHD 1080p Dual SE

Mensaje por mith34 » Lun 24 Ene, 2022 10:33

Muchas gracias, DMMD!
Has dado el salto de los 720p a UHD y codec x265, quién lo iba a decir. :mrgreen: :plas: :plas:


Un saludo.

Avatar de Usuario
jomime
Mensajes: 615
Registrado: Vie 02 Mar, 2012 13:27

Re: The Red Shoes (Michael Powell, Emeric Pressburger, 1948) UHD 1080p Dual SE

Mensaje por jomime » Lun 24 Ene, 2022 17:12

Mmmmm ... que 100 gigitas más majas acabo de liberar en mi disco duro :mrgreen: :mrgreen:

Avatar de Usuario
Teeninlove
Mensajes: 1380
Registrado: Dom 25 Jul, 2004 02:00

Re: The Red Shoes (Michael Powell, Emeric Pressburger, 1948) UHD 1080p Dual SE

Mensaje por Teeninlove » Mar 25 Ene, 2022 21:39

Muchas gracias.

Minyatur
Mensajes: 150
Registrado: Jue 30 Ene, 2003 01:00

Re: The Red Shoes (Michael Powell, Emeric Pressburger, 1948) UHD 1080p Dual SE

Mensaje por Minyatur » Dom 06 Feb, 2022 13:52

¡Otro que da las gracías por aqui!.

Saludos

Avatar de Usuario
rcortijo
Mensajes: 830
Registrado: Mié 27 Ago, 2003 02:00

Re: The Red Shoes (Michael Powell, Emeric Pressburger, 1948) UHD 1080p Dual SE

Mensaje por rcortijo » Lun 07 Feb, 2022 10:56

Muchas gracias DMMD.

Responder