Treasure of the Golden Condor (Delmer Daves, 1953) TVRip VO + [AE]

Publica y encuentra enlaces p2p de filmes hasta 1980 en esta sección.
Responder
Avatar de Usuario
The_Spirit
Mensajes: 1309
Registrado: Vie 09 Jun, 2006 23:51

Treasure of the Golden Condor (Delmer Daves, 1953) TVRip VO + [AE]

Mensaje por The_Spirit » Dom 20 Mar, 2011 22:31

EL TESORO DEL CÓNDOR DE ORO

Imagen
IMDB
Director: Delmer Daves

Intérpretes: Cornel Wilde, Constance Smith, Finlay Currie, Walter Hampden, Anne Bancroft, George Macready, Fay Wray, Leo G. Carroll

Sinopsis: Jean-Paul se rebela contra su tío, el Marqués de San Malo, y viaja a las remotas colinas Mayas de Guatemala buscando un tesoro oculto. Él es el heredero legítimo del título de su tío y de sus tierras, por ello va a Guatemala, para ganar su fortuna y volver y reclamar su herencia.

Buenas, encontré este tvrip posteado en Karagarga por richardryder y me decidí a descargarlo ante la posibilidad de que pudiera montarse un dual. Como podéis comprobar la calidad es más que aceptable. Norni ha subido el audio sin sincronizar a megaupload y elquetuquieras se ha comprometido a sincronizarlo.

Los datos técnicos:

General
Format : AVI
Format/Info : Audio Video Interleave
File size : 1.14 GiB
Duration : 1h 33mn
Overall bit rate : 1 744 Kbps

Video
ID : 0
Format : MPEG-4 Visual
Format settings, BVOP : Yes
Format settings, QPel : No
Format settings, GMC : No warppoints
Format settings, Matrix : Default (H.263)
Muxing mode : Packed bitstream
Codec ID : DX50
Codec ID/Hint : DivX 5
Duration : 1h 33mn
Bit rate : 1 571 Kbps
Width : 640 pixels
Height : 480 pixels
Display aspect ratio : 4:3
Frame rate : 29.970 fps
Color space : YUV
Chroma subsampling : 4:2:0
Bit depth : 8 bits
Scan type : Progressive
Bits/(Pixel*Frame) : 0.171
Stream size : 1.02 GiB (90%)
Writing library : DivX 2682

Audio
ID : 1
Format : MPEG Audio
Format version : Version 1
Format profile : Layer 3
Mode : Joint stereo
Mode extension : MS Stereo
Codec ID : 55
Codec ID/Hint : MP3
Duration : 1h 33mn
Bit rate mode : Constant
Bit rate : 160 Kbps
Channel(s) : 2 channels
Sampling rate : 44.1 KHz
Stream size : 107 MiB (9%)
Alignment : Aligned on interleaves
Interleave, duration : 26 ms (0.78 video frame)
Interleave, preload duration : 26 ms

Unas capturas:

Imagen
Imagen
Imagen
Imagen

Y elinks:

Audio no sincronizado posteado por norni:

http://www.megaupload.com/?d=5CPZ9BFI

Película por megaupload:

http://www.megaupload.com/?d=9688412A

http://www.megaupload.com/?d=M2H6NETQ


Película por la mula:
ed2k linkTreasure of the Golden Condor (1953) - KG.avi ed2k link stats

joramor
Mensajes: 1794
Registrado: Vie 05 Nov, 2010 19:55

Re: Treasure of the Golden Condor (Delmer Daves, 1953) TVRip VO + (AE)

Mensaje por joramor » Vie 25 Mar, 2011 00:11

Muchas gracias. Salu2

goes10
Mensajes: 4
Registrado: Sab 08 Sep, 2012 03:03

Re: Treasure of the Golden Condor (Delmer Daves, 1953) TVRip VO + [AE]

Mensaje por goes10 » Vie 09 Nov, 2012 12:00

Soy brasileño, tiene alguna subititlo para esta película, no importa el idioma, gracias por la pelícla excelente.

Avatar de Usuario
mith34
Mensajes: 212
Registrado: Dom 10 Ene, 2010 13:10
Ubicación: Áqaba

Re: Treasure of the Golden Condor (Delmer Daves, 1953) TVRip VO + [AE]

Mensaje por mith34 » Sab 23 Oct, 2021 11:47

Hará un par de años más o menos me topé con esta película en una emisión en 13tv. Sólo vi unos minutos, pero me pareció que el doblaje era de época. En eldoblaje.com, sin embargo, solamente aparece la ficha del de TVE y un posible reparto para el de cine. El caso es que no he visto nada comentado desde entonces, así que puede que me confundiera, pero juraría que la voz de Cornel Wilde era Juan Manuel Soriano.

torresmostoles
Pasion por los clasicos!!
Mensajes: 203
Registrado: Dom 25 Mar, 2018 18:55
Ubicación: madrid sur

Re: Treasure of the Golden Condor (Delmer Daves, 1953) TVRip VO + [AE]

Mensaje por torresmostoles » Mar 26 Oct, 2021 19:23

Amigo mith34 cierto es la pelicula me encantó :mrgreen: :mrgreen: nunca la habia visto parece ser que fué un remake de una de tyrone power una de esas tardes la vi con mi padre y nos gustó mucho por otro lado siento decirte que la emision de 13 fué la de tve de 1973 buen doblaje en el plantel hay muy buenas voces aún si hubiese sido el doblaje de cine serian actores de madrid....puesto se estrenó en madrid primero en los estudios donarelli ando con la oreja puesta por si aparecieran doblajes clasicos como coraza negra..yo confieso bahia negra o el salvaje de todas formas hemos disfrutado en el foro de muchisimos clasicos en version como si estuvieramos en el mismo cine gracias a los maestros que tenemos en el foro :mrgreen: :mrgreen:
un abrazo amigos :plas:

Responder