Avec la peau des autres (Jacques Deray, 1966) DVDRip VOSE

Publica y encuentra enlaces p2p de filmes hasta 1980 en esta sección.
Responder
Avatar de Usuario
professor keller
Mensajes: 1892
Registrado: Jue 27 Ene, 2005 01:00
Ubicación: Buenos Aires

Avec la peau des autres (Jacques Deray, 1966) DVDRip VOSE

Mensaje por professor keller » Mié 12 Dic, 2012 08:28

Thelion en Noirestyle:
Avec la peau des autres / Red siniestra (Jacques Deray, 1966)

Imagen

IMDb

Director
Jacques Deray

Guión
Gilles Perrault, Georges Bardawil, Jacques Deray, José Giovanni

Reparto
Lino Ventura, Jean Bouise, Marilù Tolo, Jean Servais, Wolfgang Preiss, Louis Arbessier, Adrian Hoven

Sinopsis
Un espía francés en Viena es sospechado de ser un agente doble, y envían a un colega suyo a investigar. Cuando el supesto agente doble es secuestrado por los rusos, su compleja red de contactos comienza a ser desenredada para poder encontrar un microfilm importante que estaba en su poder.

Imagen

Ripeo de aquasantajoe en Cinemageddon

Info

Código: Seleccionar todo

Complete name                    : Avec.la.peau.des.autres.1966.DVDRiP.DViX.ASJ-CG.avi
Format                           : AVI
File size                        : 1.29 GiB
Duration                         : 1h 29mn
Overall bit rate                 : 2 056 Kbps
Video
ID                               : 0
Format                           : MPEG-4 Visual
Format profile                   : Simple@L1
Format settings, BVOP            : No
Format settings, QPel            : No
Format settings, GMC             : No warppoints
Format settings, Matrix          : Default (H.263)
Codec ID                         : DX50
Bit rate                         : 1 853 Kbps
Width                            : 720 pixels
Height                           : 336 pixels
Display aspect ratio             : 2.2:1
Frame rate                       : 25.000 fps
Resolution                       : 24 bits
Colorimetry                      : 4:2:0
Scan type                        : Progressive
Bits/(Pixel*Frame)               : 0.306
Stream size                      : 1.16 GiB (90%)
Writing library                  : Lavc52.42.0
Audio
ID                               : 1
Format                           : AC-3
Codec ID                         : 2000
Bit rate mode                    : Constant
Bit rate                         : 192 Kbps
Channel(s)                       : 2 channels
Channel positions                : L R
Sampling rate                    : 48.0 KHz
Resolution                       : 16 bits
Stream size                      : 123 MiB (9%)
Alignment                        : Aligned on interleaves
Interleave, duration             : 32 ms (0.80 video frame)
Capturas

Imagen
Imagen
Imagen
Imagen
Imagen
Imagen

eMule
ed2k linkAvec.la.peau.des.autres.1966.DVDRiP.DViX.ASJ-CG.avi ed2k link stats

Subtítulos en inglés
ed2k linkAvec.la.peau.des.autres.1966.DVDRiP.DViX.ASJ-CG.srt ed2k link stats

Subtítulos en español (traducidos por keller)
http://www.subdivx.com/X6XMzExNDA2X-ave ... -1966.html

[quote]Notas a la traducción:

Hice esta traducción a partir de unos (terribles) custom subs en inglés, muchas veces errados y completamente fuera de sincro, ayudándome con unos subs en francés, mejor sincronizados pero no siempre fieles al texto tampoco. Gracias a Fingolfin, Silien, Chuschao y Kimkiduk por ayudarme a resolver algunas líneas de diálogo en francés muy peliagudas, y gracias extras a todos los que esperaron pacientemente por estos subs, cuya traducción anuncié hace más de un año... Si algún francoparlante descubre errores importantes, le agradeceré muchísimo que me los haga saber. [/quote]

Avatar de Usuario
Dardo
Arrow Thrower Clown
Mensajes: 17008
Registrado: Dom 19 Oct, 2003 02:00
Ubicación: Entre Encinas y Dolomías

Re: Avec la peau des autres (Jacques Deray, 1966) DVDRip VOSE

Mensaje por Dardo » Mié 12 Dic, 2012 09:04

Estupendo trabajo Keller, tenía olvidada por completo esta película.

Creo recordar que tengo un ripeo diferente al que subió Thelion, con más calidad, asi que voy a ver si lo localizo y os cuento por si merece la pena ofrecer otro vídeo.

Gracias.

Avatar de Usuario
professor keller
Mensajes: 1892
Registrado: Jue 27 Ene, 2005 01:00
Ubicación: Buenos Aires

Re: Avec la peau des autres (Jacques Deray, 1966) DVDRip VOSE

Mensaje por professor keller » Mié 12 Dic, 2012 22:41

Dardo escribió:Creo recordar que tengo un ripeo diferente al que subió Thelion, con más calidad, asi que voy a ver si lo localizo y os cuento por si merece la pena ofrecer otro vídeo.
En russiaski tracken habushka un devedeski komplite per kamaraden ripiadoreskis :wink:

Avatar de Usuario
Dardo
Arrow Thrower Clown
Mensajes: 17008
Registrado: Dom 19 Oct, 2003 02:00
Ubicación: Entre Encinas y Dolomías

Re: Avec la peau des autres (Jacques Deray, 1966) DVDRip VOSE

Mensaje por Dardo » Mié 12 Dic, 2012 22:57

professor keller escribió:
Dardo escribió:Creo recordar que tengo un ripeo diferente al que subió Thelion, con más calidad, asi que voy a ver si lo localizo y os cuento por si merece la pena ofrecer otro vídeo.
En russiaski tracken habushka un devedeski komplite per kamaraden ripiadoreskis :wink:
Esos licores rurales derivados del vodka están haciendo estragos...

Efectivamente tenía ese ripeo, sin el audio ruso :mrgreen:

Código: Seleccionar todo

General
Complete name                            : Avec la peau des autres (Jacques Deray, 1966) DVDRip VO..XviD.DVDRip.fenixclub.avi
Format                                   : AVI
Format/Info                              : Audio Video Interleave
File size                                : 1.33 GiB
Duration                                 : 1h 29mn
Overall bit rate                         : 2 130 Kbps
Writing application                      : VirtualDubMod 1.5.10.2 (build 2540/release)
Writing library                          : VirtualDubMod build 2540/release

Video
ID                                       : 0
Format                                   : MPEG-4 Visual
Format profile                           : Advanced Simple@L5
Format settings, BVOP                    : 1
Format settings, QPel                    : No
Format settings, GMC                     : No warppoints
Format settings, Matrix                  : Default (MPEG)
Codec ID                                 : XVID
Codec ID/Hint                            : XviD
Duration                                 : 1h 29mn
Bit rate                                 : 1 928 Kbps
Width                                    : 720 pixels
Height                                   : 320 pixels
Display aspect ratio                     : 2.25:1
Frame rate                               : 25.000 fps
Color space                              : YUV
Chroma subsampling                       : 4:2:0
Bit depth                                : 8 bits
Scan type                                : Progressive
Compression mode                         : Lossy
Bits/(Pixel*Frame)                       : 0.335
Stream size                              : 1.21 GiB (91%)
Writing library                          : XviD 63

Audio
ID                                       : 1
Format                                   : AC-3
Format/Info                              : Audio Coding 3
Mode extension                           : CM (complete main)
Codec ID                                 : 2000
Duration                                 : 1h 29mn
Bit rate mode                            : Constant
Bit rate                                 : 192 Kbps
Channel(s)                               : 2 channels
Channel positions                        : Front: L R
Sampling rate                            : 48.0 KHz
Bit depth                                : 16 bits
Compression mode                         : Lossy
Stream size                              : 123 MiB (9%)
Alignment                                : Split accross interleaves
Interleave, duration                     : 40 ms (1.00 video frame)
Interleave, preload duration             : 500 ms

teoremista
Mensajes: 390
Registrado: Vie 18 May, 2007 10:56

Re: Avec la peau des autres (Jacques Deray, 1966) DVDRip VOSE

Mensaje por teoremista » Lun 19 Ene, 2015 12:06

Muchas gracias professor keller y Thelion.
:plas: :plas: :plas:

Avatar de Usuario
lustyman
Mensajes: 1319
Registrado: Sab 01 Oct, 2005 02:00
Ubicación: Catalunya

Re: Avec la peau des autres (Jacques Deray, 1966) DVDRip VOSE

Mensaje por lustyman » Mar 20 Ene, 2015 01:12

Gracias!!!

graveland
Mensajes: 215
Registrado: Vie 18 Dic, 2009 21:15

Re: Avec la peau des autres (Jacques Deray, 1966) DVDRip VOSE

Mensaje por graveland » Mar 14 Sep, 2021 14:03

Muchas gracias, profe y Thelion.

larigan
Mensajes: 593
Registrado: Dom 15 Nov, 2015 17:00

Re: Avec la peau des autres (Jacques Deray, 1966) DVDRip VOSE

Mensaje por larigan » Dom 19 Sep, 2021 09:22

gracias

graveland
Mensajes: 215
Registrado: Vie 18 Dic, 2009 21:15

Re: Avec la peau des autres (Jacques Deray, 1966) DVDRip VOSE

Mensaje por graveland » Dom 19 Sep, 2021 12:34

larigan escribió:
Dom 19 Sep, 2021 09:22
gracias
Pues no tenía fuentes cuando la pinché hace unos días.

graveland
Mensajes: 215
Registrado: Vie 18 Dic, 2009 21:15

Re: Avec la peau des autres (Jacques Deray, 1966) DVDRip VOSE

Mensaje por graveland » Dom 19 Sep, 2021 15:20

Ya baja a un buen ritmo.

Muchas gracias de nuevo, profe y Thelion.

Responder