Ser o no ser (Ernst Lubitsch, 1942) HD 1080p Dual SE

Publica y encuentra enlaces p2p de filmes hasta 1980 en esta sección.
Responder
rykymaru80
Mensajes: 9
Registrado: Mar 15 Sep, 2020 12:37

Ser o no ser (Ernst Lubitsch, 1942) HD 1080p Dual SE

Mensaje por rykymaru80 » Mié 16 Sep, 2020 16:40

Imagen

Título original
To Be or Not to Be
Año
1942
Duración
99 min.
País
Estados Unidos Estados Unidos
Dirección
Ernst Lubitsch
Guion
Edwin Justus Mayer (Historia: Melchior Lengyel)
Música
Werner R. Heymann
Fotografía
Rudolph Maté (B&W)
Reparto
Carole Lombard, Jack Benny, Robert Stack, Stanley Ridges, Felix Bressart, Lionel Atwill, Sig Ruman, Tom Dugan, Charles Halton, George Lynn
Productora
Romaine Film, Alexander Korda
Género
Comedia. Intriga | Sátira. II Guerra Mundial. Nazismo. Teatro. Comedia negra
Grupos
Adaptaciones de Melchior Lengyel
Sinopsis
Segunda Guerra Mundial (1939-1945). Varsovia, durante la ocupación alemana. El profesor Siletsky, un espía al servicio de la Gestapo, está a punto de entregar una lista con el nombre de los colaboradores de la Resistencia. Joseph Tura, actor polaco, intérprete de Hamlet y esposo de María Tura, también conocida actriz, intentará evitarlo. Con la ayuda de los actores de su compañía, se hará pasar por el cruel coronel Erhardt y por Siletsky para entrar en el cuartel general de las SS. (FILMAFFINITY)
Premios
1942: Nominada al Oscar: Mejor Banda sonora (Drama o comedia)
Críticas
"Una obra gigantesca (...) la más insuperable, inteligente y demoledora parodia antinazi que se pueda imaginar. (...) aluvión de secuencias tan ácidas como desternillantes."
Miguel Ángel Palomo: Diario El País
"Un absorbente drama con toques de farsa y un triunfo para Lombard, que ofrece una interpretación fluida y muy eficiente"
Variety
"Una de las comedias más profundas y emocionalmente complejas que se hayan hecho nunca"
Dave Kehr: Chicago Reader
"Mr. Lubitsch tenía un sentido del humor extraño —y un guion enmarañado— cuando hizo esta película (...) [pero] esta película tiene equilibrio y sensibilidad. No hay duda de ello."
Bosley Crowther: The New York Times
"Una comedia ecléctica que se mueve en varias direcciones, habitualmente con éxito (…) Puntuación: ★★★ (sobre 4)"
Roger Ebert: rogerebert.com
"Es una película que merece la pena compartir y volver a ver regularmente."
Leonard Maltin: IndieWire
"'To Be or Not to Be' muestra el sello estético y el enfoque espiritual del director alemán (…) Puntuación: ★★★★ (sobre 4)"
Ed Gonzalez: Slan

Código: Seleccionar todo

Complete name                            : Ser o no ser (1942).mkv
Format                                   : Matroska
Format version                           : Version 4
File size                                : 7.79 GiB
Duration                                 : 1 h 39 min
Overall bit rate                         : 11.2 Mb/s
Encoded date                             : UTC 2020-08-08 07:54:53
Writing application                      : mkvmerge v49.0.0 ('Sick Of Losing Soulmates') 64-bit
Writing library                          : libebml v1.4.0 + libmatroska v1.6.1

Video
ID                                       : 1
Format                                   : AVC
Format/Info                              : Advanced Video Codec
Format profile                           : High@L4.1
Format settings                          : CABAC / 5 Ref Frames
Format settings, CABAC                   : Yes
Format settings, Reference frames        : 5 frames
Codec ID                                 : V_MPEG4/ISO/AVC
Duration                                 : 1 h 39 min
Bit rate                                 : 9 530 kb/s
Width                                    : 1 440 pixels
Height                                   : 1 080 pixels
Display aspect ratio                     : 4:3
Frame rate mode                          : Constant
Frame rate                               : 24.000 FPS
Color space                              : YUV
Chroma subsampling                       : 4:2:0
Bit depth                                : 8 bits
Scan type                                : Progressive
Bits/(Pixel*Frame)                       : 0.255
Stream size                              : 6.61 GiB (85%)
Writing library                          : x264 core 122 r2184 5c85e0a
Encoding settings                        : cabac=1 / ref=5 / deblock=1:0:0 / analyse=0x3:0x113 / me=umh / subme=8 / psy=1 / psy_rd=1.00:0.00 / mixed_ref=1 / me_range=16 / chroma_me=1 / trellis=1 / 8x8dct=1 / cqm=0 / deadzone=21,11 / fast_pskip=1 / chroma_qp_offset=-2 / threads=12 / sliced_threads=0 / nr=0 / decimate=1 / interlaced=0 / bluray_compat=0 / constrained_intra=0 / bframes=3 / b_pyramid=2 / b_adapt=2 / b_bias=0 / direct=3 / weightb=1 / open_gop=0 / weightp=2 / keyint=240 / keyint_min=24 / scenecut=40 / intra_refresh=0 / rc_lookahead=50 / rc=2pass / mbtree=1 / bitrate=9530 / ratetol=1.0 / qcomp=0.60 / qpmin=0 / qpmax=69 / qpstep=4 / cplxblur=20.0 / qblur=0.5 / ip_ratio=1.40 / aq=1:1.00
Language                                 : English
Default                                  : Yes
Forced                                   : No

Audio #1
ID                                       : 2
Format                                   : AC-3
Format/Info                              : Audio Coding 3
Commercial name                          : Dolby Digital
Codec ID                                 : A_AC3
Duration                                 : 1 h 39 min
Bit rate mode                            : Constant
Bit rate                                 : 192 kb/s
Channel(s)                               : 2 channels
Channel layout                           : L R
Sampling rate                            : 48.0 kHz
Frame rate                               : 31.250 FPS (1536 SPF)
Compression mode                         : Lossy
Stream size                              : 136 MiB (2%)
Language                                 : Spanish
Service kind                             : Complete Main
Default                                  : Yes
Forced                                   : No

Audio #2
ID                                       : 3
Format                                   : DTS
Format/Info                              : Digital Theater Systems
Codec ID                                 : A_DTS
Duration                                 : 1 h 39 min
Bit rate mode                            : Constant
Bit rate                                 : 1 509 kb/s
Channel(s)                               : 2 channels
Channel layout                           : L R
Sampling rate                            : 48.0 kHz
Frame rate                               : 93.750 FPS (512 SPF)
Bit depth                                : 24 bits
Compression mode                         : Lossy
Stream size                              : 1.05 GiB (13%)
Language                                 : English
Default                                  : No
Forced                                   : No

Text #1
ID                                       : 4
Format                                   : UTF-8
Codec ID                                 : S_TEXT/UTF8
Codec ID/Info                            : UTF-8 Plain Text
Duration                                 : 1 h 36 min
Bit rate                                 : 83 b/s
Count of elements                        : 1375
Stream size                              : 59.2 KiB (0%)
Title                                    : Completos
Language                                 : Spanish
Default                                  : No
Forced                                   : No

Text #2
ID                                       : 5
Format                                   : UTF-8
Codec ID                                 : S_TEXT/UTF8
Codec ID/Info                            : UTF-8 Plain Text
Duration                                 : 53 min 58 s
Bit rate                                 : 3 b/s
Count of elements                        : 27
Stream size                              : 1.39 KiB (0%)
Title                                    : Forzados
Language                                 : Spanish
Default                                  : Yes
Forced                                   : No

Text #3
ID                                       : 6
Format                                   : UTF-8
Codec ID                                 : S_TEXT/UTF8
Codec ID/Info                            : UTF-8 Plain Text
Duration                                 : 1 h 36 min
Bit rate                                 : 81 b/s
Count of elements                        : 1324
Stream size                              : 57.3 KiB (0%)
Title                                    : Completos
Language                                 : English
Default                                  : No
Forced                                   : No

Menu
00:00:00.000                             : en:00:00:00.000
00:07:56.292                             : en:00:07:56.292
00:16:39.708                             : en:00:16:39.708
00:24:04.833                             : en:00:24:04.833
00:30:33.667                             : en:00:30:33.667
00:42:48.542                             : en:00:42:48.542
00:51:39.417                             : en:00:51:39.417
01:03:40.667                             : en:01:03:40.667
01:13:47.833                             : en:01:13:47.833
01:17:52.292                             : en:01:17:52.292
01:26:00.208                             : en:01:26:00.208
01:32:44.792                             : en:01:32:44.792
Imagen

Imagen

Imagen

Imagen

Avatar de Usuario
janca
Mensajes: 2162
Registrado: Dom 20 Dic, 2009 09:31

Re: Ser o no ser (Ernst Lubitsch, 1942) HD 1080p Dual SE

Mensaje por janca » Mié 16 Sep, 2020 19:51

Muchas gracias rykymaru80

Avatar de Usuario
Dardo
Arrow Thrower Clown
Mensajes: 16459
Registrado: Dom 19 Oct, 2003 02:00
Ubicación: Entre Encinas y Dolomías

Re: Ser o no ser (Ernst Lubitsch, 1942) HD 1080p Dual SE

Mensaje por Dardo » Mié 16 Sep, 2020 23:26

Esto es empezar a tope, felicidades.

El ripeo tiene buena pinta, y creo haberlo localizado y pinchado.

Acuérdate de subir alguna captura que siempre queda la presentación más completa.

Muchas gracias rykymaru80

ostrata
Mensajes: 2155
Registrado: Mié 24 Mar, 2010 17:29

Re: Ser o no ser (Ernst Lubitsch, 1942) HD 1080p Dual SE

Mensaje por ostrata » Jue 17 Sep, 2020 06:17

Gracias. :)

Saludos.

Avatar de Usuario
Spanish Jhonny
Mensajes: 2885
Registrado: Mar 18 Sep, 2012 16:01

Re: Ser o no ser (Ernst Lubitsch, 1942) HD 1080p Dual SE

Mensaje por Spanish Jhonny » Jue 17 Sep, 2020 09:12

Gran película rykymaru80, muchas gracias ;)
¿Mejora esta edición el criterion de hace unos años?.
Saludos.

Avatar de Usuario
paizoco
Mensajes: 2722
Registrado: Vie 21 Nov, 2003 01:00
Ubicación: Far West

Re: Ser o no ser (Ernst Lubitsch, 1942) HD 1080p Dual SE

Mensaje por paizoco » Jue 17 Sep, 2020 21:49

Me apunto, muchas gracias.

Responder