The Killer Is Loose (Budd Boetticher, 1956) HD 1080p Dual SE

Publica y encuentra enlaces p2p de filmes hasta 1980 en esta sección.
santi

Mensajes: 994
Registrado: Vie 17 Ene, 2003 1:00 am

The Killer Is Loose (Budd Boetticher, 1956) HD 1080p Dual SE

Mensajepor santi » Mar 18 Jul, 2017 12:15 am

El asesino anda suelto (The Killer Is Loose) (Budd Boetticher, 1956)

Imagen
Filmaffinity | IMDb

John Hawkins, Ward Hawkins, Harold Medford
Música: Lionel Newman
Fotografía: Lucien Ballard (B&W)
Reparto: Joseph Cotten, Rhonda Fleming, Wendell Corey, Alan Hale Jr., Michael Pate, John Larch, Dee J. Thompson, John Beradino, Virginia Christine, Paul Bryar
Productora: Crown Productions
Género: Cine negro | Drama | Crimen

Sinopsis:
En una pequeña ciudad unos ladrones atracan un banco y se produce un asesinato, que parece haber sido cometido por un apocado empleado de la entidad asaltada. Se trata de Leon Poole, que resulta ser el cómplice que había proporcionado a los ladrones la información necesaria para realizar el atraco. (FILMAFFINITY)



Gracias a quienes compartieron el BD 1080p.
Spoiler: mostrar
Dadas las (extrañas) circunstancias en las que actualmente parecemos movernos en el mundo p2p (en especial, en lo relativo a los trackers privados), de aquí en adelante haré "agradecimientos genéricos" a quienes compartieron la fuente original y no enlazaré a dicha fuente original en mis posts.
Disculpen las molestias


Detalles de la edición REMASTERED


Ripeo con esta configuración:

Código: Seleccionar todo

"C:\x264.exe" --preset veryslow --tune film --crf 19.0 --no-chroma-me --level 4.1 --output "C:\mi_ripeo.mkv" "C:\mi_script.avs"


Imagen
Imagen
Imagen
Imagen
Imagen
Imagen
Imagen
Imagen
Imagen

Código: Seleccionar todo

Format : Matroska
Format version : Version 4 / Version 2
File size : 12.6 GiB
Duration : 1 h 13 min
Overall bit rate : 24.7 Mb/s
Writing application : mkvmerge v13.0.0 ('The Juggler') 64bit
Writing library : libebml v1.3.4 + libmatroska v1.4.5

Video
ID : 1
Format : AVC
Format/Info : Advanced Video Codec
Format profile : High@L4.1
Format settings, CABAC : Yes
Format settings, ReFrames : 4 frames
Codec ID : V_MPEG4/ISO/AVC
Duration : 1 h 13 min
Bit rate : 24.5 Mb/s
Width : 1 920 pixels
Height : 1 036 pixels
Display aspect ratio : 1.85:1
Frame rate mode : Constant
Frame rate : 23.976 (24000/1001) FPS
Color space : YUV
Chroma subsampling : 4:2:0
Bit depth : 8 bits
Scan type : Progressive
Bits/(Pixel*Frame) : 0.514
Stream size : 12.5 GiB (99%)
Writing library : x264 core 150 r2833 df79067
Encoding settings : cabac=1 / ref=4 / deblock=1:-1:-1 / analyse=0x3:0x133 / me=umh / subme=10 / psy=1 / psy_rd=1.00:0.15 / mixed_ref=1 / me_range=24 / chroma_me=0 / trellis=2 / 8x8dct=1 / cqm=0 / deadzone=21,11 / fast_pskip=1 / chroma_qp_offset=-3 / threads=6 / lookahead_threads=1 / sliced_threads=0 / nr=0 / decimate=1 / interlaced=0 / bluray_compat=0 / constrained_intra=0 / bframes=8 / b_pyramid=2 / b_adapt=2 / b_bias=0 / direct=3 / weightb=1 / open_gop=0 / weightp=2 / keyint=250 / keyint_min=23 / scenecut=40 / intra_refresh=0 / rc_lookahead=60 / rc=crf / mbtree=1 / crf=19.0 / qcomp=0.60 / qpmin=0 / qpmax=69 / qpstep=4 / ip_ratio=1.40 / aq=1:1.00
Language : English
Default : Yes
Forced : No

Audio #1
ID : 2
Format : AAC
Format/Info : Advanced Audio Codec
Format profile : LC
Codec ID : A_AAC
Duration : 1 h 13 min
Bit rate : 87.7 kb/s
Channel(s) : 2 channels
Channel positions : Front: L R
Sampling rate : 48.0 kHz
Frame rate : 46.875 FPS (1024 spf)
Compression mode : Lossy
Stream size : 45.9 MiB (0%)
Language : English
Writing library : qaac 2.64, CoreAudioToolbox 7.10.9.0
Encoding settings : qaac -V 127 --ignorelength --adts --no-delay -o
VBR min./avg./max. : 4 / 90 / 192 Kb/s.
Duration.......... : 4388.245 sec., (1h. 13m. 8.245s.)
Default : Yes
Forced : No

Audio #2
ID : 3
Format : AAC
Format/Info : Advanced Audio Codec
Format profile : LC
Codec ID : A_AAC
Duration : 1 h 13 min
Bit rate : 144 kb/s
Channel(s) : 2 channels
Channel positions : Front: L R
Sampling rate : 48.0 kHz
Frame rate : 46.875 FPS (1024 spf)
Compression mode : Lossy
Stream size : 76.2 MiB (1%)
Title : Doblaje para cines de 1956
Language : Spanish
Writing library : qaac 2.64, CoreAudioToolbox 7.10.9.0
Encoding settings : qaac -V 127 --ignorelength --adts --no-delay -o
VBR min./avg./max. : 6 / 148 / 265 Kb/s.
Duration.......... : 4388.224 sec., (1h. 13m. 8.224s.)
Default : No
Forced : No

Text #1
ID : 4
Format : UTF-8
Codec ID : S_TEXT/UTF8
Codec ID/Info : UTF-8 Plain Text
Duration : 1 h 12 min
Bit rate : 70 b/s
Count of elements : 901
Stream size : 37.3 KiB (0%)
Language : Spanish
Default : Yes
Forced : No

Text #2
ID : 5
Format : UTF-8
Codec ID : S_TEXT/UTF8
Codec ID/Info : UTF-8 Plain Text
Duration : 1 h 9 min
Bit rate : 76 b/s
Count of elements : 1165
Stream size : 39.2 KiB (0%)
Language : English
Default : No
Forced : No

Text #3
ID : 6
Format : UTF-8
Codec ID : S_TEXT/UTF8
Codec ID/Info : UTF-8 Plain Text
Duration : 1 h 9 min
Bit rate : 77 b/s
Count of elements : 1194
Stream size : 39.8 KiB (0%)
Title : H.I.
Language : English
Default : No
Forced : No

Text #4
ID : 7
Format : UTF-8
Codec ID : S_TEXT/UTF8
Codec ID/Info : UTF-8 Plain Text
Duration : 1 h 4 min
Bit rate : 0 b/s
Count of elements : 3
Stream size : 93.0 Bytes (0%)
Title : Forzados
Language : Spanish
Default : No
Forced : Yes

Text #5
ID : 8
Format : VobSub
Muxing mode : zlib
Codec ID : S_VOBSUB
Codec ID/Info : Picture based subtitle format used on DVDs
Duration : 1 h 9 min
Bit rate : 12.3 kb/s
Count of elements : 1199
Stream size : 6.17 MiB (0%)
Title : English Vobsubs (H.I.)
Language : English
Default : No
Forced : No

Menu
00:00:00.000 : en:00:00:00.000
00:01:38.765 : en:00:01:38.765
00:05:17.567 : en:00:05:17.567
00:07:27.864 : en:00:07:27.864
00:09:09.424 : en:00:09:09.424
00:13:16.087 : en:00:13:16.087
00:15:45.361 : en:00:15:45.361
00:20:02.034 : en:00:20:02.034
00:27:16.677 : en:00:27:16.677
00:29:25.764 : en:00:29:25.764
00:30:45.469 : en:00:30:45.469
00:36:44.077 : en:00:36:44.077
00:39:23.945 : en:00:39:23.945
00:43:41.077 : en:00:43:41.077
00:49:40.019 : en:00:49:40.019
00:57:21.897 : en:00:57:21.897
01:00:40.762 : en:01:00:40.762





:arrow: BDRip Dual (V.O. - doblaje en castellano) 1080p, con subtítulos en español e inglés en el contenedor MKV (12.64 GBs)

:arrow: Subtítulos por separado
, por si alguien los necesita para... (91 KBs)

Los subtítulos en español fueron tomados de un ripeo de DMMD (muchas gracias) y resincronizados para este ripeo.


El audio doblado se corresponde con el doblaje para su estreno en cines en España en 1956. Un doblaje de campanillas para una película más que digna. La fuente utilizada fue el dvdrip de la mula de Marc27, y se incluyen un par de líneas de forzados para un diálogo que curiosamente estaba silenciado en la edición peninsular, tanto en español como en inglés. No es importante.

Enlaces relacionados en DXC
El asesino anda suelto (Budd Boetticher, 1956) DVDRip Dual SE
El asesino anda suelto (Budd Boetticher, 1956) VHSRip VE
The Killer is Loose (Boetticher,1956) TVRip VOSE + Audio Esp



:arrow: Cómo buscar archivos en emule. Necesario para buscar lo anterior...





----------------------------------------------------


Imagen Imagen

Última versión del codec x264 (inglés) | Web en español sobre el codec x264
Manual de ripeo con x264 en línea de comandos (español) | Parámetros de codificación (inglés)
Contenedor Matroska (español) | Matroska en wikipedia (español): software de PC compatible, etc.
MKVToolnix, herramientas de edición para matroska (inglés) | Añadir cadenas de audio o subtítulos con MKVToolnix (español)
MKVExtractGui | Manual de extracción de cadenas de audio/vídeo/subtítulos en MKV (español)
Cómo crear BDRips MKV/x264 1080p o 1080p (español) | Guía avanzada para crear DVDRips MKV/x264 paso a paso (inglés)


Nota: Codificación de vídeo y subtítulos a cargo del habitual de la plantilla, y doblaje por parte de este que postea.

Avatar de Usuario
paizoco

Mensajes: 1978
Registrado: Vie 21 Nov, 2003 1:00 am
Ubicación: Far West

Re: The Killer Is Loose (Budd Boetticher, 1956) HD 1080p Dual SE

Mensajepor paizoco » Mar 18 Jul, 2017 12:57 am

Me apunto, por supuesto.
Y muchas gracias.
Precisamente vi la película por primera vez hace unos tres o cuatro días, de la copia DVDRip que había disponible hasta ahora,
y creo que es un buen film noir.

ostrata

Mensajes: 1120
Registrado: Mié 24 Mar, 2010 5:29 pm

Re: The Killer Is Loose (Budd Boetticher, 1956) HD 1080p Dual SE

Mensajepor ostrata » Mar 18 Jul, 2017 6:42 am

Gracias. :)

Saludos.

larigan

Mensajes: 311
Registrado: Dom 15 Nov, 2015 5:00 pm

Re: The Killer Is Loose (Budd Boetticher, 1956) HD 1080p Dual SE

Mensajepor larigan » Mar 18 Jul, 2017 9:23 am

GRACIAS

elmajete

Mensajes: 786
Registrado: Vie 18 May, 2007 10:05 pm

Re: The Killer Is Loose (Budd Boetticher, 1956) HD 1080p Dual SE

Mensajepor elmajete » Mar 18 Jul, 2017 1:12 pm

Muchas gracias santi :plas: :plas: :plas:

Avatar de Usuario
duegno

Mensajes: 149
Registrado: Dom 28 Ago, 2011 1:28 pm

Re: The Killer Is Loose (Budd Boetticher, 1956) HD 1080p Dual SE

Mensajepor duegno » Mar 18 Jul, 2017 2:43 pm

Gracias.
Última edición por duegno el Jue 20 Jul, 2017 8:07 pm, editado 1 vez en total.

Avatar de Usuario
miguel_HammerFilms

Mensajes: 1158
Registrado: Vie 18 May, 2007 11:23 am

Re: The Killer Is Loose (Budd Boetticher, 1956) HD 1080p Dual SE

Mensajepor miguel_HammerFilms » Mar 18 Jul, 2017 6:15 pm

Muchas gracias pareja, se os echaba de menos :plas: :plas:
Imagen

joramor

Mensajes: 1130
Registrado: Vie 05 Nov, 2010 7:55 pm

Re: The Killer Is Loose (Budd Boetticher, 1956) HD 1080p Dual SE

Mensajepor joramor » Mar 18 Jul, 2017 11:01 pm

Muchas gracias santi. Salu2.

maimes

Mensajes: 181
Registrado: Mié 20 Abr, 2011 1:03 pm

Re: The Killer Is Loose (Budd Boetticher, 1956) HD 1080p Dual SE

Mensajepor maimes » Mié 19 Jul, 2017 9:56 am

Muchas gracias por otro excelente trabajo. Otro "noir", quizás menor, que podemos disfrutar con la calidad merecida. Inimaginable hace algunos años. Trabajo de lujo. Gracias y saludos.

Avatar de Usuario
miguelito

Mensajes: 190
Registrado: Sab 13 Abr, 2013 3:33 pm

Re: The Killer Is Loose (Budd Boetticher, 1956) HD 1080p Dual SE

Mensajepor miguelito » Mié 19 Jul, 2017 7:19 pm

me parece una obra maestra, nunca imaginé que fuese en 1.85 :1, la versión open matte es alucinante. Muchas gracias por compartir


Volver a “Cine Clásico”

¿Quién está conectado?

Usuarios navegando por este Foro: a.l.b.e.r.t.o, DCINE, Google [Bot], Jose Julio, Yahoo [Bot], Yandex [Bot] y 4 invitados